<?xml version="1.0" standalone="no"?>
<!DOCTYPE svg PUBLIC "-//W3C//DTD SVG 1.1//EN" "http://www.w3.org/Graphics/SVG/1.1/DTD/svg11.dtd" >
<svg>
<metadata>
Created by FontForge 20120731 at Sat Jun 29 16:52:41 2019
 By www
Copyright (c) 2009 Linotype GmbH, www.linotype.com. All rights reserved. This font software may not be reproduced, modified, disclosed or transferred without the express written approval of Linotype GmbH. Papyrus is either a registered trademark or a trademark of International Typeface Corporation. This typeface is original artwork of Chris Costello. The design may be protected in certain jurisdictions. Copyright Esselte Letraset Ltd., 1990.
</metadata>
<defs>
<font id="PapyrusW01" horiz-adv-x="600" >
  <font-face 
    font-family="PapyrusW01"
    font-weight="400"
    font-stretch="normal"
    units-per-em="1000"
    panose-1="2 0 5 3 4 0 0 2 0 3"
    ascent="800"
    descent="-200"
    x-height="445"
    cap-height="659"
    bbox="-258 -603 1398 940"
    underline-thickness="50"
    underline-position="-100"
    unicode-range="U+000D-E308"
  />
<missing-glyph horiz-adv-x="227" 
 />
    <glyph glyph-name=".notdef" horiz-adv-x="227" 
 />
    <glyph glyph-name=".null" horiz-adv-x="0" 
 />
    <glyph glyph-name="uni000D" unicode="&#xd;" horiz-adv-x="0" 
 />
    <glyph glyph-name="space" unicode=" " horiz-adv-x="227" 
 />
    <glyph glyph-name="exclam" unicode="!" horiz-adv-x="261" 
d="M67 50q1 9 7 12l31 19l17 16q2 1 4.5 2t6.5 2l13 -12l35 -25q7 -5 9.5 -9.5t4.5 -15.5l-4 -7l-8 -15l-30 -21l-8 -10l-15 7l-13 17l-19 17l-10 17q-3 1 -11 3zM161 714q10 -6 12 -11l-3 -14l-2 -23l-5 -11l5 -28l-8 -2l3 -24l4 -5v-11l2 -14l-3 -24l2 -12l-8 -25l1 -6
l3 -3l-1 -11l-4 -68l-4 -17l1 -14l9 -17l-1 -18l-1 -23q-1 -2 -8 -9l13 -29l3 -27l2 -10l-7 -7l-10 -23q-3 -6 -20 -17l-9 5l-24 -2l-8 5q-9 4 -9 12l1 4l19 29l5 49l3 19h11q4 7 4 12t-5 13l-13 -3l-3 42l11 32l-4 13l-4 8l-2 58l-1 13l-5 1v10l15 -1l4 5q-4 6 -7.5 8
t-11.5 4v5l1 31l-5 28l2 12q-13 9 -18 16.5t-5 17.5q0 9 6.5 18t16 16.5t22 12t24.5 4.5l9 -1z" />
    <glyph glyph-name="quotedbl" unicode="&#x22;" horiz-adv-x="325" 
d="M60 575l19 12l41 34q6 3 11 3l8 -1l-1 -9v-53l-7 -26l-3 -17l5 -3v-25l-3 -24l-8 -31v-4l-2 -2l-2 2l-22 -13l-7 7l-8 46l1 64l-12 18l-9 1zM186 575l18 12l42 34q4 3 10 3l9 -1l-1 -9l-1 -53l-6 -26l-3 -17l4 -3l1 -25l-3 -24l-9 -31l1 -4l-3 -2l-1 2l-23 -13l-6 7
l-8 46l1 64l-13 18l-9 1v21z" />
    <glyph glyph-name="numbersign" unicode="#" 
d="M77 184l10 8q3 3 8 3h11t13 -2l11 -1l4 10l9 4l8 -1q2 8 1 17.5t8 23.5q6 7 6 13q0 5 -2 7l10 28l-3 33l7 38q6 4 6 9q0 2 -2 6v5l-3 -1l-21 4l-21 -19l-19 4l-9 -14q-2 -1 -4.5 -2t-6.5 -1q-10 0 -13.5 0.5t-6.5 2.5l-13 12l-21 27q-2 8 -2 16q0 18 13 18q2 0 5 -1t6 -1
q10 0 14 4l3 2l5 -4l4 -2t4 -1q6 0 10 7l8 -3l11 -1l13 -4l3 4l7 3q7 2 11 4.5t9 2.5q6 0 11 -5l8 3l4 -2l1 8l15 33l-4 34l16 17l-9 15q-1 2 -1.5 8t-0.5 11q0 9 7 16l9 9l12 3l44 22h3q1 0 6 -0.5t10 -2.5t9 -5.5t4 -10.5t-4 -20t-9 -13q-1 0 -2 0.5t-2 0.5l-3 -12
l-16 -30q1 -1 1 -4q0 -7 -9 -20l-7 -11l9 -9l-1 -12l-9 -21q2 -1 6 -1t8 4h24l28 4l22 -2q3 -1 7 -1t6 2l14 7h7l13 21l-12 34l14 19l1 20q1 17 7.5 29t11.5 14l18 11l24 10q19 -2 26.5 -8.5t7.5 -20.5q0 -13 -5.5 -17t-5.5 -9l1 -5l-11 -12q-2 -2 -5 -4t-3 -7q0 -6 4 -11
l-6 -9l-6 -13l-10 -11l4 -7l-1 -14l29 3l15 -3l10 5q2 2 12 3.5t13 1.5q9 0 23 -8l4 7l15 -3l4 -16q1 -3 2 -7t1 -10q0 -12 -4 -21t-17 -9h-7.5t-4.5 1t-5.5 1.5t-10.5 2.5l-9 4l-10 -8h-1q-14 0 -16.5 1.5t-7.5 3.5l-11 1l-4 -10l-9 -4l-19 1q3 -8 3 -14q0 -10 -0.5 -20.5
t-11.5 -27.5q-6 -6 -6 -13q0 -3 2 -7v-28l-7 -33l-16 -38q-2 -2 -3 -2.5t-2 -2.5l12 6l21 -4l14 7l19 -4l29 14q2 1 5 2t6 1q10 0 19 -6t11 -8l3 -12l-19 -12q2 -8 2 -15q0 -18 -13 -18q-2 0 -5 0.5t-6 0.5q-10 0 -14 -4l-3 -2l-26 6l-14 -2q-6 -1 -11.5 -1h-8.5q-5 0 -9 4
l-8 -10l-9 3l-3 -8l-1 -14l-15 -33l6 -31l-16 -17l9 -15q2 -4 2 -6q0 -13 -19 -32l-9 -9l-12 -3l-34 -22h-3q-2 0 -6.5 0.5t-9 2.5t-8.5 5.5t-4 10.5t1.5 13t4.5 17l19 45l25 34l-9 9l1 12l13 30l-2 11q-5 0 -8 -3h-24l-28 -4h-30q-2 1 -4.5 2.5t-4.5 1.5q-3 0 -6 -3l-14 -7
l-17 -1l2 -19l-8 -22l7 -35l-14 -17l5 -22q0 -17 -8.5 -25.5t-13.5 -11.5l-18 -11l-37 -14q-32 3 -32 21q0 11 4.5 20.5t4.5 13.5l-1 5l21 12q2 2 5 4t3 7q0 6 -4 11l6 9l6 13l10 11l-4 7l1 10q0 4 5.5 8t5.5 7l-16 -2l-24 6l-14 -10q-2 -2 -9 -4.5t-11 -2.5q-9 0 -23 8
l-9 4l-16 20q-3 6 -3 17q0 8 14 15t33 7q8 0 10 -7zM226 233q-25 -10 -25 -20q0 -2 1 -4l41 -2l19 9h12l12 -5l9 4l7 -11h2l1 3l20 15q10 -12 14 -14l19 45l-2 25l6 16l9 12l1 11l4 4l1 2l-5 3l-6 29q13 6 14.5 10.5t1.5 9.5q0 3 -1 4l-4 20l-29 2l-19 -9h-12l-12 5l-9 -4
l-7 11h-2l-1 -3l-20 -15q-14 16 -21 16l-2 -1l5 -7l-3 -12l-11 -17l2 -23l4 -18l-9 -12l-1 -11l-14 -34l-1 -2l5 -3z" />
    <glyph glyph-name="dollar" unicode="$" horiz-adv-x="534" 
d="M85 457l7 12l6 -1q7 0 10 3t8 13q-9 9 -9 15t16 13l11 4l-2 12l13 11q24 21 38 21l11 -1q3 5 5.5 7.5t5.5 4.5t8 4t14 5l10 3l1 31l-2 17l-6 17q0 9 19 12l2 2l19 2l1 -25v-22q-1 -14 4.5 -23t13.5 -9l13 3l11 2l25 -4l43 -6q2 -8 5 -9.5t10 -2.5l1 -5q0 -9 -10.5 -19
t-36.5 -24l-8 11v7l-7 -1l-3 4h-14.5t-11.5 1t-13.5 2.5t-19.5 4.5l-4 -7l2 -27l-10 -21l3 -10h7v-71l29 -11q2 -9 5 -11.5t11 -3.5l6 9l20 -3l8 -10q42 -4 73 -25t40 -51h-11l-1 -8l3 -2v-6l20 -10l3 -12l1 -19q0 -8 -6 -18l-4 4l-6 -2l2 -17q0 -32 -39 -75l-13 -18
l-17 -11l-52 -44l-19 -8q-14 -6 -24 -8.5t-24 -1.5l-3 -12l2 -74q0 -10 -23 -20q-8 0 -11 1.5t-7 6.5h-7l-1 25l3 22l5 16l-5 11q-4 7 -11 12t-12 5l-30 -2l-41 17l-12 2l-9 2l-5 16l-3 1l-5 8h-7l-21 -6l-15 11l-11 9q-24 21 -24 28q0 2 2 10l3 7l2 16l9 16l2 13
q13 -4 17.5 -7.5t9.5 -14.5v-8l9 -7q16 -13 20 -17t7 -13l12 -5l12 -10l32 -10l21 -13q16 -11 30 -11q24 0 24 41l1 9l-1 19l4 95h-4l-1 13v53l-5 21l-8 4l-11 12q-5 5 -23 5l-14 1l-9 10l-8 2l-15 -5l-25 13l-8 6l-20 16l-6 8l1 10l-4 31zM164 447l22 -19q10 -8 38 -8h12
l3 30l-3 26l7 4l-1 13l-8 8q-1 8 0 12t5 10l-2 8l2 7l-15 3q-26 0 -57 -38q-10 -11 -16.5 -22t-6.5 -16l2 -5l5 -8zM263 254l7 -3l3 -62h-7v-7l-7 -2q2 -11 4.5 -14.5t11.5 -7.5l-1 -11l-4 -31l-1 -22l8 -13l18 -1l12 13l45 28q8 5 23 29q5 10 8.5 19t3.5 18l2 28l3 12
l12 -3l5 13l-3 5l-25 18l-8 23l-12 10l-9 24l-8 3q-7 0 -15 -12l-12 3l-42 10h-5l-1 -22l1 -16q0 -9 -13 -14l-1 -4z" />
    <glyph glyph-name="percent" unicode="%" horiz-adv-x="762" 
d="M71 481l-1 12l-3 9l3 9q13 0 15 6l20 36q5 8 10.5 11.5t16.5 5.5l-1 4h-4l9 8l19 20l27 18l14 7l1 7l13 4l26 9l18 1l34 12l8 -4l52 -9l10 -5l17 -29l8 -9l5 1l9 -2l3 -11q3 -14 5 -20.5t3.5 -10.5t2.5 -5.5l3 -4.5l-2 -14v-44q0 -4 -13.5 -27.5t-30.5 -48.5
q-4 -5 -7 -6.5t-11 -2.5l-4 -5v-6l-9 -9l-15 -14l-39 -22l-3 -7l-5 -2l-35 -10l-27 -6l-21 -7l-24 9l-9 -1l-6 1l-12 7l-8 -1q-12 0 -23 23q-14 5 -21 13.5t-20 31.5l5 2l-2 15h-7l-3 23l2 10l-4 4zM548 590l-3 -15l-15 -23l-9 -10l2 -10l-5 -10l-20 -29l-4 -13l-18 -9v-16
l-7 -11l-31 -44l-30 -61l-11 -15l-26 -38l-6 -11l-11 -2l-1 -3l3 -3l-8 -29q-23 -8 -24 -20l-3 -25l-16 -27l-10 -29l-15 -20l-6 -32l-18 -19l1 -15l-11 -20q-9 -11 -13.5 -14.5t-11.5 -5.5l-20 -5l-28 -12q-6 1 -10.5 4.5t-4.5 8.5q0 6 7 14l15 26l3 6l21 7q7 3 7 23
q2 3 4 5t3 4l8 12l12 9l-6 11l5 10q6 11 11 17t14 13v11l19 12q0 8 1.5 14.5t5 13.5t10.5 16t18 21q9 9 11 18l3 16l16 11l16 32l25 41l3 11l8 2l8 -5v8l-6 6q1 6 2 9.5t3 6.5t6.5 7l13.5 12q8 7 10 15l1 21l16 25l5 23l22 31l2 30l17 15v16q2 14 27 36l9 8l9 1l38 15l3 1
q5 0 16 -9l-19 -39q-7 -11 -13 -13.5t-14 -2.5zM700 191v-28l-20 -37l-27 -35q-5 -4 -9.5 -6.5t-13.5 -5.5l2 -9l-10 -8l-37 -26l-16 -8l-7 -6q-8 -8 -27 -11l-63 -16l-15 11l-6 -4l-26 12l-14 3l-10 5l-4 11l-16 16l-9 12h-8l-5 19l4 2l-4 15h-5l-4 39l-1 5q10 9 10 14
l-3 19l-1 11l20 5l10 17l7 20l16 15l8 11l11 8l42 36l16 7l3 7l16 7l38 6q11 2 32 13l10 -4l33 -9l14 -6l3 3q16 -4 18 -9l13 -25l19 -11l14 -42l4 -19zM111 490l4 -2l1 -12q0 -17 2.5 -22.5t14.5 -12.5l-5 -16l7 -15q11 0 15.5 -1.5t12.5 -9.5l12 -10l-1 -7l12 -4l38 -11
l10 -1l10 3l33 9l12 8l16 6l7 9l12 11l5 10l13 8l9 20l11 16v13l5 16l-4 19l2 11l-7 2l-10 19l4 8l-6 9l-5 -1l-12 9l-25 16l4 10l-7 10l-14 -9l-19 11l-14 1l-16 2l-6 -1l-11 -4l-17 -2q-11 -14 -15.5 -18t-9.5 -5l-14 -3l-21 -23l-14 -14q-6 -7 -6 -22v-5l-13 -6v-19z
M404 166l2 -9l-2 -7v-10q0 -11 3.5 -17t14.5 -13q-6 -8 -6 -12q0 -11 12 -11l8 1l25 -20q0 -7 1.5 -9.5t6.5 -4.5l10 2q16 -8 24 -11t15 -3q17 0 39 10l36 17l25 28l11 7l14 28l10 11l-5 7l8 24l-6 7l4 8l1 11l-12 9l-8 9q7 7 7 12q0 3 -7 12l-12 -4q-6 11 -11 15.5t-17 8.5
v17l-9 4q-3 -6 -5 -8t-8 -2l-2 4h-6l-6 8l-40 5l-9 -6l-17 -4l-11 -11l-22 -10l-11 -7l-7 -8q-11 -11 -16.5 -17.5t-8.5 -11.5t-4.5 -10t-2.5 -14q-7 -2 -9.5 -4.5t-2.5 -8.5l1 -7v-3z" />
    <glyph glyph-name="ampersand" unicode="&#x26;" horiz-adv-x="782" 
d="M467 389l-15 -6q-19 -5 -23.5 -8t-9.5 -12l-17 5l-9 8l-10 5l-15 -6l-14 5l-7 -5l-27 3l-27 -14l-21 2l-12 -4l8 -12l-19 -3l-28 -17l-20 -10l-37 -44q-4 -4 -7.5 -5t-11.5 -3q-1 -4 -1.5 -6.5t-2 -6t-4 -9.5t-7.5 -16l-8 -28v-18l-4 -9l5 -11l4 -28l9 -16l5 -13l11 -11
l9 -15l34 -34q15 -18 34 -22l30 -7l35 -3l16 1l2 -5l11 2h27l15 7l14 4l51 20l16 3l3 9q25 14 38.5 26.5t30.5 35.5l9 15l3 23l3 18q-1 12 -22 27l-35 27q-14 14 -19.5 17.5t-19.5 7.5l-24 12l-16 3l-26 -7l-17 -4q-8 -2 -13 -13l-12 -22l-11 -11l5 -23v-1q0 -3 -5 -8
q-7 -5 -15 -5q-4 0 -7 3l-6 6l-13 8q-7 6 -7 17q0 5 2 11.5t6 9.5l22 19l29 25l33 12l47 20l20 4l19 -1l38 -11l27 -15l2 -10l6 -13l10 -4l4 9l-4 8l12 -6l30 -19l22 -10q12 0 25.5 6t36.5 21q10 6 12.5 8.5t3.5 5.5l7 41q0 8 -5 17t-18 24q5 8 7.5 10t9.5 4l16 6l9 -9l4 -6
l22 -9q6 -4 11 -19h13q0 -16 -3 -33.5t-10 -34.5l-10 -5l-28 -28l-27 -16l-14 -2l-9 -7l-31 -8q-15 -3 -15 -17l6 -20l-9 -7l-3 -13q-2 -14 -4 -17.5t-8 -3.5l-16 3q0 -8 1 -11t6 -8l-9 -12l-11 -8l-9 -11l-32 -19l-6 -9l-20 -6l-39 -23l-42 -18l-47 -14l-38 -4l-32 -7
l-13 1l-1 -4h-16l-14 9q-4 -3 -5 -4.5t-1 -6.5h-8h-4q-23 0 -33 4.5t-15 16.5l-5 -1l-6 6h-4l-2 -10q-10 0 -15 2t-14 9q-22 17 -33 30t-19 32q2 5 4 9t2 6l-1 6l-7 7l-19 10l-3 12l1 8q8 0 10.5 2t6.5 10l-7 8l-7 -1q-9 0 -9 16q0 5 2 12t4 13l15 32l10 21l9 10l10 17l10 6
l17 20l17 8l16 25l18 17l3 11l30 14l9 9l8 8q-18 7 -23.5 14t-6.5 22l-20 -4l-32 36l3 13q0 7 -11 13l11 24l-4 2v8q0 9 2.5 14.5t10.5 13.5q9 1 11.5 2.5t7.5 11.5q5 11 21 23t28 15l3 11l20 2l12 12l59 23l26 16l34 1l47 9q21 -1 28 -21l14 -4l6 -22q7 -7 9 -14
q0 -8 -14 -15l-9 5l-35 8l-13 5l-12 -5l-15 8l-2 -6l-12 -3l-18 5l-28 -8l-1 3l-14 3l-9 -3l-28 -10l-12 -7l-9 -3l-41 -34q-6 -3 -8.5 -4.5t-4.5 -5t-4 -10.5t-5 -21l-4 -11l12 -12l11 -8l2 -10l15 -10l13 -9l68 -16l13 -5l11 1l56 -2l25 9l27 1l21 5l20 -6z" />
    <glyph glyph-name="quotesingle" unicode="'" horiz-adv-x="199" 
d="M60 575l19 12l41 34q6 3 11 3l8 -1l-1 -9v-53l-7 -26l-3 -17l5 -3v-25l-3 -24l-8 -31v-4l-2 -2l-2 2l-22 -13l-7 7l-8 46l1 64l-12 18l-9 1z" />
    <glyph glyph-name="parenleft" unicode="(" horiz-adv-x="435" 
d="M216 576l12 26l8 8l6 21l20 12l26 29l23 19l16 24l34 25l18 17q10 9 21 9q5 0 13 -5l-2 -5l7 -23l-5 -11l-9 -18l-13 -9l-32 -5l-18 -9l-8 -9l-19 -15l-20 -24l-29 -24l-10 -24l-33 -54l-9 -33l-9 -25l-1 -14l-11 -54l5 -35l1 -9l-2 -11l-5 -9l7 -36l-2 -11l8 -32l-2 -14
l16 -40l1 -17l18 -32l3 -16l9 -18l2 -6l-1 -5l4 -5l-1 -14l2 -10l28 -22l20 -28l14 -17q-6 -9 -6 -14q0 -9 8 -11l20 -2l32 -22q9 -4 32 -6l12 -1q8 -10 9 -20l-3 -3l-8 2l-13 -26l4 -9q6 -9 6 -15q0 -7 -18 -26l-13 7l-21 15l-28 16l-10 8q-7 2 -10 4t-15 13l-8 7v4l-12 12
l-21 25l-7 7l-11 17l8 5v4q-8 2 -11.5 3.5t-8.5 6.5q-8 10 -15.5 24t-10.5 28l-6 22l-14 33l-4 10l3 3l2 10l-5 3l5 6l-8 3l-3 17l-13 38l-1 34l-6 14l2 18l-3 34l2 24l-2 12l3 21l5 50l12 18l-1 13q0 8 2 11.5t9 7.5l8 30l16 34l8 30z" />
    <glyph glyph-name="parenright" unicode=")" horiz-adv-x="435" 
d="M223 77l-12 -26l-8 -8l-6 -21l-20 -12l-26 -29l-23 -19l-16 -24l-34 -25l-18 -17q-11 -9 -21 -9q-6 0 -13 5l2 5l-7 23l5 11l9 18l13 9l32 5l18 9l8 9l19 15l20 24l29 24l10 24l33 54l9 33l9 25l1 14l11 54l-5 35l-1 9l2 11l5 9l-7 36l2 11l-8 32l2 14l-16 40l-1 17
l-18 32l-3 16l-9 18l-2 6l1 5l-4 5l1 14l-2 10l-28 22l-20 28l-14 17q6 9 6 14q0 9 -8 11l-20 2l-32 22q-9 4 -32 6l-12 1q-8 10 -9 20l3 3l8 -2l13 26l-4 9q-6 9 -6 15q0 7 18 26l13 -7l21 -15l28 -16l10 -8q7 -2 10 -4t15 -13l8 -7v-4l12 -12l21 -25l7 -7l11 -17l-8 -5v-4
q8 -2 11.5 -3.5t8.5 -6.5q8 -10 15.5 -24t10.5 -28l6 -22l14 -33l4 -10l-3 -3l-2 -10l5 -3l-5 -6l8 -3l3 -17l13 -38l1 -34l6 -14l-2 -18l3 -34l-2 -24l2 -12l-3 -21l-5 -50l-12 -18l1 -13q0 -8 -2 -11.5t-9 -7.5l-8 -30l-16 -34l-8 -30z" />
    <glyph glyph-name="asterisk" unicode="*" horiz-adv-x="376" 
d="M34 516q4 6 6.5 11t4 12t2 18.5t0.5 30.5h8l10 -11l15 -19q4 -5 9.5 -8t18.5 -7l2 -4l4 2l3 9q24 -24 48 -24h7v7l-7 2l-4 17l-6 28q0 6 8 17l-2 6q-24 6 -24 31q0 4 8 14l19 -2l16 1q11 0 20 2t23 7q4 -3 4 -8v-4l-11 -20q-11 -17 -13 -20.5t-2 -11.5v-13h10l-3 -12
l-7 -31l2 -12l5 -3l5 9l14 8q16 10 22 12.5t12 2.5l11 -1q3 33 27 33q6 0 8.5 -5t9.5 -30q3 -11 18 -31l8 -10l-2 -5l-21 1l-17 8h-41l2 -12l-7 -2l-19 1h-2q-6 0 -12 -2.5t-17 -10.5l2 -7l12 2q12 -18 23 -23q8 -6 11 -9t3 -8l-2 -10l13 2q12 0 21.5 -6t9.5 -14q0 -5 -4 -9
t-27 -20q-5 -3 -10 -9.5t-12 -15.5l-6 -10l-5 3l-10 32q3 7 3 12t-3 11t-13 20l-11 -6q-2 22 -6.5 32t-18.5 18l-8 -3v-6l5 -2q-6 -44 -32 -53q7 -14 7 -22q0 -10 -5 -17t-13 -7q-6 0 -9 3l-33 23l-30 9v7l8 6q10 8 13.5 10t13.5 3l28 25l-10 8q20 10 29 19t13 23l-7 2
l-3 -6l-14 2l-21 1.5t-11.5 2t-8.5 4t-11 8.5q-5 -16 -20 -16q-9 0 -17 4t-8 9z" />
    <glyph glyph-name="plus" unicode="+" 
d="M241 172l-13 -7l-56 -9l-17 13q-6 2 -7 2q-7 0 -12 -11l-8 -2q-9 -1 -15 -1.5t-11 -0.5q-7 0 -11 1.5t-10 3.5l-7 14q-3 7 -3 14q0 10 4.5 19t13.5 20v5l3 3l11 -2l26 -1l21 -5q7 0 10.5 -1.5t6.5 -3l6 -3t9 -1.5q5 0 8 2t8 7l32 4l8 -11q0 -2 3.5 -2.5t6.5 -0.5
q19 0 19 15q0 3 -0.5 6.5t-1.5 8.5l-3 15q10 10 10 17q0 4 -5 16l-8 4l1 9q2 16 6 23.5t4 11.5v2l-12 15l6 20l4 5l2 15q2 11 15.5 16.5t36.5 5.5q10 0 13.5 -2t5.5 -7l2 -36l-5 -17l1 -15l6 -20l-9 -4l-8 -18l14 -5l-1 -26l-9 -39l7 -13q11 11 19 11q2 0 10 -2l7 5h14
l12 -7q5 0 15 1.5t21 1.5q12 0 24 -3q5 5 8 7.5t9 2.5q3 0 7 -1t9 -1q9 0 18 3q7 0 11.5 -3.5t4.5 -21.5v-11q0 -17 -6 -28t-18 -11q-2 0 -8.5 0.5t-30.5 0.5h-7q-14 0 -19 4t-16 9l-8 -8l-24 -2q-14 1 -17 1.5t-3 1.5q-3 -3 -7 -3l-7 -1q-7 4 -8 4t-2 -1.5t-4 -1.5
q-4 0 -6 2l-5 -14l9 -8l-2 -22l4 -17v-3q0 -6 -2 -9t-4 -10l-4 -15l2 -15l5 -21q1 -4 1 -12q0 -11 -7 -25l-20 -7l-8 -7q-9 -9 -22 -9q-24 0 -24 25l10 41l-5 18l13 10v14l-10 8l-7 18l8 9l-1 15l8 12l-13 18z" />
    <glyph glyph-name="comma" unicode="," horiz-adv-x="279" 
d="M52 -191q2 9 5 11.5t14 4.5l3 4l6 -2q7 0 19 12q11 2 19 6.5t10 9.5l3 9l17 17l7 35l6 10l-5 3v4l1 7l3 7l-5 14l-11 37q-1 5 -18 11l-7 8q-8 11 -10 12.5t-15 1.5l-12 2v9l12 12l19 16l12 17l14 11q15 -4 20.5 -7t13.5 -11l12 -13l5 -28l9 -42l1 -6l-2 -10l-6 -9v-42
q0 -12 -10 -25q-6 -8 -9 -12.5t-4.5 -7t-2 -4.5l-1.5 -6l5 -6l-6 -8q-8 -13 -13.5 -21t-10.5 -13t-11 -10t-16 -12l-7 -2l-23 2l-16 -1z" />
    <glyph glyph-name="hyphen" unicode="-" horiz-adv-x="460" 
d="M188 253q2 -20 15 -20q8 0 14 15q7 0 10 0.5t8 5.5l14 -6l55 -2l42 -7l42 10l11 -2l19 22l8 -9l-7 -11l-4 -11l-18 -17l-8 -9l-15 -7l-30 -23q-8 -5 -17 -5q-10 0 -14 2l-15 5l-6 1l-22 -3l-9 -1l-13 3q-23 6 -36 6h-2l-37 -2h-1l-31 8l-8 3q-9 0 -12 -1l-17 -4l-7 3
l-9 -9q-11 3 -17 3q-9 0 -21 -15q-17 1 -17 11q0 12 18 26l36 27l25 15l29 2l19 3l15 -6l7 -1h6z" />
    <glyph glyph-name="period" unicode="." horiz-adv-x="279" 
d="M78 52l11 9l24 17l12 14l10 6q14 -10 21 -14.5t13 -7.5l14 -6q14 -5 22 -28l-14 -27l-8 -6q-11 -7 -14.5 -11t-7.5 -12q-12 -1 -18 5l-48 46l-11 2l-11 4z" />
    <glyph glyph-name="slash" unicode="/" horiz-adv-x="529" 
d="M10 -108l10 17l28 36h13l4 8l6 22l32 54l9 23q3 8 4.5 9.5l3.5 3.5l11 7l-2 16l42 62l6 13l5 13q11 2 13 5t0 18l20 40q4 13 12 21q13 11 15.5 14t0.5 6q0 3 -5 8l12 18l10 27l14 22q4 8 6 12.5t4 6.5t4.5 3.5t7.5 3.5q2 1 4 1.5t5 2.5l-7 12q-3 4 1 16q21 1 19 9l-5 18
l11 21l3 10q8 -2 10 -2q6 0 7.5 5.5t2.5 26.5l6 20l19 35l5 12l6 -2l8 15l-3 22l5 13l7 24l16 34l5 26l2 10l9 2q-2 4 -2 5q-3 7 3 10l9 -5q1 6 0 9q-1 4 -11 12q4 17 15 22.5t40 7.5l21 3l14 -6l8 -15l-6 -6l-9 -20l-20 -34l-14 -46l-70 -132l-7 -27l-47 -77
q-3 -15 -4.5 -23t-4 -11.5t-8 -5.5t-15.5 -6l6 -11l-6 -15q-10 4 -13 4q-8 0 -8 -19l6 -3q2 -6 0 -11l-7 -12l-19 -31l-15 -37l-8 -14q-5 3 -7 3q-3 0 -9 -8q-1 -2 -6 -7l7 -10l-5 -10q-21 -1 -17 -14q1 -2 2.5 -4.5t4.5 -6.5l-36 -68l-18 -7q6 -15 1 -22l-27 -45l-9 -28
l-9 -15l-6 -13l-10 2l-4 -5l-3 -12l-3 -21l-8 -23l-1 -11q-8 -4 -11 -7.5t-5 -11.5q-15 -5 -25.5 -7t-22.5 -2q-13 0 -19 2.5t-14 11.5z" />
    <glyph glyph-name="zero" unicode="0" horiz-adv-x="663" 
d="M444 621q0 -11 2.5 -15.5t11.5 -11.5l7 19l8 -4l36 -10l5 -7l-2 -9l19 -5l7 -10l25 -21q6 -6 15 -26q3 -7 5 -12t2 -10l-2 -8q6 -5 10 -10t8 -12t8 -17.5t9 -26.5l3 -9l-7 -8l-8 4q5 -5 7.5 -9t4.5 -12h6l6 -38l-2 -13l-5 -27l1 -16l-10 -25l-4 -13q-21 -3 -21 -16
q0 -4 1 -8t4 -12l7 -3l-2 -17l-13 -30l-12 -33l-32 -36l-12 -16l-10 -5l-24 -15l-21 -12l-16 -22l-15 -1l-11 -9l-30 -15l-9 -8l-5 2l-27 -10l-30 5q-5 0 -9 -2t-12 -8l-53 12l-3 5l-11 -2l-3 3l-1 -3l-20 6l-4 8l-2 -7q-29 9 -45 19.5t-33 32.5q-9 2 -13 8l-4 16
q-1 8 -3 11t-10 7l-4 -5l-8 -1q-4 10 -7.5 14t-11.5 11l-6 14q-10 23 -13 32.5t-5 19.5l-6 4l-1 13l-6 12l-1 14l-4 18l5 25l-3 12l6 9l7 -1l9 8l-6 18l2 11l-7 -8q-9 7 -9 13q0 4 1 9.5t3 10.5l7 25l13 8l14 11l-8 5q0 8 0.5 11t3.5 8l21 40l17 30l12 11l7 8l12 -1
q4 7 6.5 9.5t8.5 4.5q-8 2 -8 7q0 4 13 11l34 24q8 7 15.5 12.5t14.5 7.5q8 3 10 5t4 8h3q4 0 12 -6l10 6l49 31l49 3l25 2q13 0 24 -6l19 -10zM338 576l-14 1q-18 0 -34.5 -2t-20.5 -6l-8 -6l-38 -14q-11 -7 -19.5 -15t-20.5 -25l-15 -13l-14 -31l-18 -22l-5 -22l-14 -28
l-5 -44l-7 -25v-15l1 -54q2 -15 9 -32t15 -28l22 -29q11 -15 12.5 -17.5t1.5 -4.5v-2l-3 -15l2 -8l7 -9l12 -3l5 7l9 -6l33 -21l12 -2l11 -4l-3 -10q3 -6 5.5 -8t8.5 -4l9 1l-2 9q25 -15 36 -15l23 -1l28 -4l29 11l46 7l11 7l21 22l15 8l15 24l24 23l11 34l14 16l-1 21l7 13
l1 5q0 6 -9 14l7 4q0 5 1.5 6t5.5 3v4q0 9 -11 14q2 18 3 29t1 25q0 18 -2 37t-4 26l-11 29l-3 11l8 9l-13 20l-6 -11q-14 11 -17.5 18t-4.5 24l-13 6q-8 -4 -12 -4q-5 0 -8 3t-12 17l2 10q0 6 -5 8l-23 7l-5 8l-15 7l-16 10l-22 -3z" />
    <glyph glyph-name="one" unicode="1" horiz-adv-x="252" 
d="M170 622v-4l1 -26l-2 -16l-9 -31l6 -36l1 -15q-15 -3 -15 -16t17 -20l-3 -21l-8 -6v-25l2 -15q0 -2 -0.5 -2.5t-0.5 -1.5l-4 -31l11 -30l-5 -35l6 -35l-3 -8l-1 -10l-6 -8l7 -23v-16l2 -27l-3 -10l-1 -10l-10 -12l-1 -7v-7l8 -10q6 -7 7.5 -10.5t0.5 -12.5l-1 -25l-2 -18
l3 -22q-13 -13 -35.5 -22.5t-40.5 -9.5q-13 0 -13 27v1l2 27l11 7q-5 11 -6 16t-1 15q5 4 7 6.5t2 8.5l-7 9l1 16l1 23l9 13q5 7 5 14q0 4 -1 5l-8 21l1 12v4q0 5 3 8l12 11q2 1 2 4l-2 9l-11 27l1 47l-8 15q-5 10 -5 17l5 82l5 46l-1 22q0 12 -1 20t-5 19l-56 -1q-5 5 -5 9
q0 5 1.5 9.5t3.5 5.5l53 27l39 36q16 13 31 13q4 0 15 -3z" />
    <glyph glyph-name="two" unicode="2" horiz-adv-x="507" 
d="M9 11l12 11q6 6 16 6h4q8 20 15 26t21 6q3 7 6 9.5t11 5.5q-6 7 -6 13q0 3 2 5l28 24l19 23l13 14l12 22l38 40l7 16l13 20l16 44l65 98q10 18 12 33l7 49l1 9q-8 11 -11 17t-6 18q-12 8 -17.5 13t-10.5 14l3 9q-5 8 -8.5 10t-11.5 3l-1 -13l-13 5q-22 9 -35.5 14.5
t-23 8.5t-17 4t-16.5 1q-28 0 -41 -11l-29 -22l-12 -5l-24 13q2 9 4 12.5t10 14.5l6 10h6q4 0 5 1l5 6l33 16l12 11q8 6 25 10t36 4q13 0 22.5 -1.5t22.5 -3.5q9 -16 14 -15q5 0 12 10q7 -2 9 -4t4 -10q5 -4 10 -4q4 0 13 6l12 -5q14 -5 19.5 -8t7.5 -5l7 -11l26 -15
q5 -3 13 -12t14 -18l5 -12v-25l3 -15l1 -4q0 -9 -3.5 -13.5t-12.5 -8.5l-1 -8l-5 -3q6 -9 6 -13q0 -7 -5 -14l-68 -100l-28 -50l-7 -5l-15 -25l-67 -91l-22 -32l-13 -22q-3 -9 -6 -12t-12 -7q-2 -4 -2 -9q0 -2 3 -8l6 -1l40 3l42 -10h10q11 0 31 4l8 -6h20l46 1h5l10 -4
l11 -1l29 3l11 -5l17 2l38 -2q6 0 15.5 5.5t18.5 14.5l17 -4v-3v-9q0 -5 -2 -9l-15 -24l-7 -13l-25 -7l-25 -19q-8 -5 -15 -5q-15 0 -28 6q-22 8 -32 8h-1l-32 -2l-56 6l-65 -2h-12l-9 11l-5 -5l-12 3l-1 -8l-45 -1l-2 13l-5 4l-11 -1l-3 -14l-22 -2l-18 -6q-15 -5 -33 -5
q-40 0 -40 9v5z" />
    <glyph glyph-name="three" unicode="3" horiz-adv-x="476" 
d="M276 639l8 6q8 6 15.5 10t10.5 4q7 0 7 -7q0 -23 -10.5 -50t-25.5 -44l-13 -15l-57 -86l-11 -13h6h6l9 -4l32 1l13 -4l33 -1l25 -14l25 -4l14 -9l29 -12l15 -9l7 -12q13 -19 17 -26t4 -10q0 -10 -16 -22q9 -5 11 -12q3 -8 4.5 -22t1.5 -25l-2 -20l-5 -17v-16
q0 -11 -9 -29l-8 -11l-9 -4l-46 -91l-18 -16l-12 -22l-23 -21q-11 -8 -15.5 -16t-8.5 -20l-14 -11l-20 -11l-9 -10l-17 -10l-36 -30q-12 -9 -19 -10l-20 -4l-13 -18q-4 -5 -31 -16l-17 -9l-8 4q-10 5 -14.5 6t-12.5 1h-7q-9 6 -9 15q0 10 8 12l33 10l14 8h12l30 15l22 4
l32 20l35 23l12 15l7 -2q3 0 12 7l-3 9l48 46l-1 8l-4 1l4 9l35 53q19 30 19 61v10q5 7 6.5 11t3.5 13l-6 7l-2 4l5 19l-8 20l-6 21q0 2 -6 11q7 11 7 16t-8 9l5 5l-6 15l-7 -2l3 7l-8 5q-7 -3 -9 -5.5t-4 -9.5q-8 7 -13.5 12t-9.5 8t-8 5t-9 4l-6 21h-5l-7 -9l-7 1l-4 -8
q-12 5 -18.5 6t-13.5 1q-8 0 -19 -4q-4 5 -9 6l-16 -1h-17l-49 -34l-14 -3l-28 -9h-10v8l6 9l9 18l22 9l15 23l32 19q6 5 10 14l5 16l10 11l3 11l5 10l-5 5l4 10l26 32l8 23l10 21q3 7 3 15q0 18 -50 11l-60 7l-20 3l-20 2h-1q-6 0 -14 -5q-13 -8 -19.5 -10.5t-10.5 -2.5
q-13 0 -13 11t11 16l37 20l34 22l28 -7l59 2l15 -6l35 2l34 -5l12 4z" />
    <glyph glyph-name="four" unicode="4" horiz-adv-x="658" 
d="M0 290q5 19 7 24t5 7l12 6l9 9l22 12l21 19l15 8l17 12l29 15l23 17l26 14l16 16l23 11l23 22l17 10l7 14l17 12l12 23l20 28l5 10q11 3 15.5 5.5t6.5 7.5l7 13l9 9l24 40q7 7 18 7q6 0 17 -8l-3 -10q6 -9 8 -17t2 -21v-10l-3 -33l1 -7l-3 -3l6 -9l-5 -15l-1 -22l-4 -16
l1 -9l4 -3l2 -18l1 -28q0 -13 -3 -22l-10 -31q-2 -4 -2 -8q0 -8 5.5 -14t13.5 -6q6 0 10 1l5 -10q5 1 6.5 3t3.5 7l8 2l42 -2l34 5l18 -2l19 4l27 10l6 4l4 1l8 -3l9 3l10 8l8 1h3q9 0 9 -14v-5l-10 -6l-12 -9t-10 -11l-6 2l-10 -10v-12l-8 -3q-1 -8 -10 -13l-7 1l-25 -1
l-39 10l-53 -9l-34 2l-14 -3q-7 -20 -7 -31v-59l-2 -24l5 -16l-14 -2l5 -15l-7 -1q2 -8 5 -10.5t11 -4.5l-1 -15q8 -8 7 -26l1 -16l-1 -20q0 -9 5 -16l-3 -9q0 -1 0.5 -2t0.5 -3l-9 -13l-19 -9l-19 -14l-12 -2l-14 -15l-10 -6q-17 -2 -17 18q0 6 3 10.5t11 10.5l-2 4l7 17
l-1 18l13 24l-2 58l2 64l-2 13l2 7l-1 13l13 32l-5 15l-15 -4q3 7 3 11q0 2 -1 5t-3 8l-9 1l-62 -4l-43 4l-12 -4l-21 3l-10 -5q-2 -1 -5 -1l-16 2l-26 3l-15 13h-2q-5 0 -8 -4l-9 -10q-3 -4 -10 -4l-26 1l-73 -2h-5zM157 350l21 3l66 -13l25 6h1q6 0 40 -8q10 -2 14 -2
q12 0 24 13l19 -2l4 11v29l1 9q-5 13 -5 18q0 7 4 16q9 9 9 15q0 5 -1 6l-15 29l-3 45l-11 8l-17 -25l-14 -3l-54 -48l-101 -68q-8 -5 -12 -12t-6 -20z" />
    <glyph glyph-name="five" unicode="5" horiz-adv-x="490" 
d="M0 -132q3 22 11 22l21 2l36 13l11 2l7 7l10 6l6 8h7l3 4l10 -2q11 0 17 11l6 16l28 21l46 41l19 12l10 18l25 24l7 9q15 4 18 11l7 17l15 22l6 22l31 61l5 49l5 10l-3 11v14l-7 19l16 12l-12 4q-5 -4 -6 -6.5t-2 -8.5q-3 6 -5 9.5t-5 6.5t-8.5 6.5t-14.5 10.5l-8 6l1 13
q-6 6 -10 8t-10 2v3l-8 -4l-2 5l-11 1l-40 15l-50 9l-11 3l5 3v7q0 8 -8 13l-12 -20l-40 -2l-26 -27l-13 -4q-24 -11 -32 -11q-5 0 -9 3.5t-4 8.5q0 7 12 18l24 20l15 15q9 13 13.5 19t6.5 9t4 4l6 3l3 11l5 14l27 45l10 36l7 15l2 14l25 15l2 9l6 10l8 2l29 -1l13 3l63 2
h10l5 -5l12 4l17 6l51 3l19 13q8 4 17 4l9 -1l4 -18l-9 -13q-9 -13 -14 -19.5t-7 -10t-3.5 -6.5t-3.5 -9l-8 -1q-11 -10 -16 -13t-16 -7q-17 11 -21 11h-41l-16 3l-68 -5l-10 1l-11 -5l-5 13v-16l-8 -3l-10 -5l-10 -22l-13 -25l-9 -21l-4 -13l10 -3l65 -10l17 -5h44l20 -2
l-2 -4l9 -5l6 7l35 -14l-1 -8l5 -3v-8q0 -12 9 -12q6 0 18 12q9 -2 10 -3l8 -11l29 -26q7 -9 7 -20v-2l-2 -21l5 -15l-3 -21v-19l-8 -20l-9 -35l-13 -12l-19 -44l-26 -36l-10 -21l-29 -37l-25 -29l-29 -23l-17 -16q-3 -6 -5 -9t-5 -6t-9.5 -8t-18.5 -14l-9 -8l-1 -13l-9 -6
l-12 -9l-9 -15l-9 -9l-7 -2l-3 3l-14 -17l-19 -13l-25 -17l-18 -11l-11 -10q-3 -3 -7 -3q-5 0 -15 6l-7 -4l-16 3l-14 5h-5h-6z" />
    <glyph glyph-name="six" unicode="6" horiz-adv-x="528" 
d="M27 137q11 14 11 24v4l-3 29l3 20l-4 14l7 8l26 57l19 16l1 20q0 8 7 17l20 26l29 56q6 10 11 14.5t15 7.5v8q13 8 15 12l12 26l15 20l21 28l16 15l7 11l5 -1v8l10 9l19 28l42 43l18 25l20 14l66 68l25 13l28 19h5q6 0 10.5 -4.5t4.5 -10.5q0 -5 -3 -14l-7 -2l-4 -20
l-11 -3q-26 -9 -29 -12l-13 -15l-18 -5l-32 -34q-5 -5 -8.5 -6.5t-11.5 -2.5l-6 -11l-11 -14l-18 -23q-9 -12 -28 -20q-5 -12 -9 -18.5t-12 -15.5l-33 -38l-22 -26l-33 -51l-9 -12l-7 -16q-2 -3 -11 -8l-4 -11l-15 -19l-6 -16l-5 -9q-6 -12 -6 -19v-1l3 -28l-20 -46l-3 -13
l5 -3q-6 -17 -8 -23.5t-2 -11.5l-1 -35l-8 -25l16 -17l21 -46l7 -13q16 -7 21 -12t7 -18q7 -3 10 -3q2 0 10 4l52 -22q5 4 8 4q4 0 11 -5q7 7 9 7l15 1l41 25l15 7l13 13l23 20q8 7 14 20t8 27q15 4 15 11t-10 15q5 11 5 20q0 10 -4.5 18.5t-17.5 23.5l9 17q-13 8 -20 8
l-6 -1l-32 32l-6 2l3 11q0 10 -11 10q-5 0 -14 -9l-10 3l-45 1l-19 6l-13 -2l-15 -2l-8 -9l-7 5l-23 -5h-1q-6 0 -6 8q0 6 7 13q57 51 105 51h44h15l4 -6l11 1q9 0 13 -15q11 7 18 7q10 0 20.5 -5.5t12.5 -11.5l8 -22l9 -8h7q11 0 13 -7l5 -23l14 -47l-1 -23q0 -21 -5 -35.5
t-18 -29.5l-18 -22l-18 -32l-20 -12l-8 -13q-5 -7 -18 -17.5t-48 -33.5q-11 -7 -17 -10.5t-14 -7t-21 -7t-37 -10.5l-41 -10h-1l-23 6l-39 10l-25 10l-10 7v12l-12 7l-20 24l-10 8q-3 3 -5.5 6.5t-8.5 14.5l6 3l-5 18l-4 -1l-5 29v10z" />
    <glyph glyph-name="seven" unicode="7" horiz-adv-x="459" 
d="M-40 -193q2 10 5.5 16.5t14.5 25.5q8 12 12 15t15 3l6 13l4 13q1 7 14 23l7 8q-4 3 -4 8q0 4 2 6l25 35l3 9q3 7 17 15q-1 4 -1 11q0 4 2 8l39 58l6 27l16 9l1 13l12 15l5 14l20 30l9 19l7 2l6 14l5 16l43 69l23 45q15 19 19.5 25.5t4.5 8.5l1 8l13 24l21 43l22 36l5 27
l9 8l-1 12q0 9 7 23l-11 8l-20 -2l-50 1l-15 -1l-18 -1l-1 5l3 -1v3l-5 1l4 4q-7 6 -14 6q-11 0 -15 -17l-19 3l-25 -3q-1 5 -2 7t-5 4q-7 -1 -8.5 -3t-1.5 -8h-13h-27l-22 -2l-53 -26q-1 -1 -4 -1q-13 0 -15 20l7 8l24 24l37 26l13 14l35 13l9 3q3 0 6 0.5t5 0.5
q15 0 27 -5l21 -7l35 -1l18 -9l12 -3l-5 12h7l6 -1l11 -2l30 8l53 -2l12 3v-11l22 -7q7 5 9 10l3 7l34 17l13 12q8 4 15 4q10 0 16 -17q-28 -27 -40.5 -44t-17.5 -34l-4 -14l-20 -26l-15 -16q-8 -8 -10.5 -14.5t-4.5 -17.5l-9 -5l-5 -10l-12 -16l-4 -12l-11 -20l-1 -7
l-14 -13l-5 -15q-3 -11 -14 -27l-20 -28l-71 -127l-5 -8l-5 2l-5 -12h4l-7 -13l-29 -53l-18 -26l-3 -10q-5 -5 -9 -5h-6l1 -17q0 -10 -4 -14l-23 -21l-3 -26l-13 -23l-7 -27q-3 -8 -7 -14t-13 -14l-3 -27q-5 -10 -7.5 -14.5t-10.5 -12.5v-8q0 -11 -4 -18t-17 -18l-12 -12
l-12 2l-10 -7q-20 -14 -28 -14q-9 0 -19 7z" />
    <glyph glyph-name="eight" unicode="8" horiz-adv-x="496" 
d="M52 229l4 -4q10 8 10 13q0 2 -5 10q2 8 4 13t7 10q8 9 19.5 20t20.5 17l22 14l9 7q4 -4 6 -5t8 -1h4l1 11q5 5 8.5 7.5t9.5 4.5l4 8l-12 6l-17 5l-18 24l-15 12l-5 7l2 6l-14 33q-1 1 -1 4q0 6 8 19l8 -1q8 0 8 6t-10 13q5 17 11 27t20 23l73 67l4 5l18 11q19 10 31 14
t32 8l10 2l9 -6q13 -8 19 -8h2l23 5l14 -12l29 -18l7 -9q-4 -5 -4 -9t6 -11l6 1q13 0 13 -17l-1 -9l-4 -1l2 -12q3 -14 3 -22q0 -9 -3.5 -20t-9.5 -22t-13.5 -21t-15.5 -17l-5 3q-7 -7 -9.5 -11.5t-4.5 -15.5l3 -4l-7 -1q-5 -7 -8.5 -9t-20.5 -10l-8 -4l1 -9l9 -4
q21 -7 30.5 -11t11.5 -8l11 -19l31 -32l6 -11q-5 -13 -5 -20q0 -11 5 -16.5t19 -10.5l-3 -11l-4 -41q-1 -5 -5.5 -15t-13.5 -25q-9 -16 -19 -23l-35 -25l-26 -32l-21 -14l-10 -11l-18 -9l-14 -11l-19 -9l-9 -11l-13 -2l-53 -17l-32 1l-9 -4q-10 9 -15.5 12t-17.5 7l-2 -5
l-10 -2q-13 0 -27 8l-24 12l-15 25l-19 10q-2 3 -4 8t-4 17l-9 50l-1 6l4 6l3 20l2 16l9 12l17 33l6 9h5zM177 60l5 2q11 -19 24 -19q8 0 11 12l40 -4l20 11l40 21l22 22l10 5l21 47q8 -4 14 -4q10 0 10 12q0 11 -18 12l5 20l-5 4l-1 9v32q0 8 -17 8q-6 13 -11 19.5
t-16 17.5l4 12l-16 11h-21l-35 22l-11 -1l-29 1l-6 -8h-7.5t-7 -1.5t-11.5 -4.5t-20 -9l-26 -12l-13 -11l-25 -25q-4 -6 -10.5 -18.5t-11.5 -26.5q-5 -11 -5.5 -21t-1.5 -27v-16v-11l-6 -1q0 -16 7 -21l12 -5l34 -30q8 -7 16.5 -10.5t25.5 -5.5zM219 428q7 -5 10.5 -7
t11.5 -3l1 -12l5 -2l22 5l31 -2q5 0 10.5 1.5t20.5 6.5l5 8l9 11l11 7q3 2 5.5 5t4 9.5t3 18.5t3.5 31l2 11l-9 9l-6 11q-7 12 -20.5 21.5t-30.5 15.5l-3 10l-13 3q-4 2 -9 2t-7 -13l-6 1l-27 -8l-26 -8l-13 -5l-14 -21q-1 -5 -1 -8t-1 -4l-9 -12l-5 -10v-8l4 -17l18 -30
l-1 -17q2 -4 5.5 -7.5t7.5 -3.5q7 0 11 11z" />
    <glyph glyph-name="nine" unicode="9" horiz-adv-x="528" 
d="M-13 -164q6 14 10 14l16 2l15 7l33 13q4 2 9 5.5t16 14.5l18 13l13 16l7 -4l18 15l9 16l26 25l13 16l15 11l1 9l9 7l7 7l13 7l-2 8l7 9q12 13 18.5 21t11.5 14.5t9.5 14t12.5 19.5l6 2q2 13 7 19.5t18 12.5q4 14 9 22l35 49l-1 16l9 18q10 15 10 27l1 15l17 33l3 11l-2 3
l-1 10l12 53l-7 40l4 19l-4 10h-6l-7 15q-4 9 -6.5 14.5t-5.5 9t-7.5 7t-12.5 9.5l-12 9l1 10q0 12 -20 16q-9 -6 -15 -6q-5 0 -14 3.5t-23 11.5l-5 -7l-14 6l-3 -1l-19 -7l-4 2l-1 10l-3 -14l-11 -6l-27 -15l-12 -7l-23 -22l-11 -8q-13 -10 -16 -23l-9 -24l-12 -10
q-2 -1 -2 -4q0 -6 8 -13q-4 -15 -4 -21q0 -9 3 -13l15 -27l9 -17l26 -28q10 -10 17 -13t18 -3q5 -8 9 -11t11 -4l42 -1l19 -5l11 -2q14 0 27 13l10 -4l7 -1l11 -6q-7 -12 -12.5 -17.5t-16.5 -12.5l-20 -14l-10 -3l-46 -12h-28l-11 -1l-11 8l-11 -3l-11 -4l-7 3l-10 4l-5 8
l-9 3l-9 -3q-14 4 -19.5 7t-16.5 14q-17 18 -26 38t-14 58l-3 15l2 10l5 37l12 20l11 20l15 16l5 15l9 5l7 8l19 15l17 21q9 12 41 31q22 13 36 21t24 14.5t19 13t21 15.5l4 -1l32 6l43 -15l50 -14l5 -8q3 -5 22 -13q22 -9 25 -23l4 -24l15 -27l5 -27l2 -10l-1 -11l-13 -27
l2 -32l-5 -23l2 -12l-13 -7v-8q0 -9 -8 -25l-32 -58q-9 -9 -10.5 -13t-3.5 -18q-5 -5 -7.5 -8.5t-4.5 -7.5t-4 -10t-5 -16l-12 -6q-5 -17 -13 -32t-24 -35q-8 -9 -10 -12t-7 -11l-10 3l-17 -25l3 -2v-12l-18 -16l-23 -24l-8 -13l-69 -82q-16 -18 -24.5 -24.5t-20.5 -8.5
q1 -2 1 -5q0 -6 -15 -24l-16 -16l-7 -6l-19 -4q-4 -10 -8.5 -14.5t-17.5 -11.5l-6 -3q-19 -11 -30 -11q-4 0 -16 3l-5 9q-7 2 -10.5 4.5t-8.5 7.5z" />
    <glyph glyph-name="colon" unicode=":" horiz-adv-x="279" 
d="M78 55l11 9l24 17l12 14l10 6q14 -10 21 -14.5t13 -7.5l14 -6q14 -5 22 -28l-14 -27l-8 -6q-11 -7 -14.5 -11t-7.5 -12q-12 -1 -18 5l-48 46l-11 2l-11 4zM78 293l11 9l24 17l12 14l10 6q14 -10 21 -14.5t13 -7.5l14 -6q14 -5 22 -28l-14 -27l-8 -6q-11 -7 -14.5 -11
t-7.5 -12q-12 -1 -18 5l-48 46l-11 2l-11 4z" />
    <glyph glyph-name="semicolon" unicode=";" horiz-adv-x="279" 
d="M52 -182q2 10 5 12.5t14 3.5l3 4l6 -2q8 0 19 13q11 2 19 6t10 9l3 9l17 17l7 35l6 10l-5 3v5l1 6l3 7l-5 15l-11 36q-2 7 -18 11l-7 8q-8 11 -10 12.5t-15 2.5l-12 1v10l12 11l19 17l12 17l14 10q15 -4 20.5 -7t13.5 -11l12 -13l5 -27l9 -43l1 -6q0 -5 -2 -9l-6 -10v-41
q0 -13 -10 -26q-6 -8 -9 -12.5t-4.5 -7t-2 -4.5l-1.5 -6l5 -5l-6 -8q-8 -14 -13.5 -21.5t-10.5 -13t-11 -10t-16 -11.5l-7 -3l-23 3l-16 -1zM77 299l14 10l21 15l11 13l12 8l9 -6l37 -21q16 -8 24 -30l-6 -9l-8 -16l-23 -20l-8 -11l-12 1l-12 12l-25 20l-13 16q-2 2 -6.5 4
t-17.5 4z" />
    <glyph glyph-name="less" unicode="&#x3c;" 
d="M469 -12l-8 5l-47 11l-34 26l-17 19l-26 1l-20 8l-28 8l1 5q0 10 -7 16.5t-18 6.5q-4 0 -11 0.5t-14.5 1t-14 0.5t-8.5 -2q-3 13 -9 18l-10 1l-25 1l-11 17l-29 12l-12 12l-20 4q-3 0 -7 3q-4 4 -4 7v7.5t0.5 14t1 14t1.5 7.5l16 17l13 22l15 10l24 1l20 27l32 9l11 -6
l9 4l19 25l32 5l30 20l29 6l21 -8l6 11l-2 19l21 21l39 12l28 9l30 2l9 -6l-4 -16l13 -1l4 -12q0 -14 -7 -27t-17 -17l-26 -7l-33 -14l-33 1l-49 -30l-9 -2l-29 -7q-6 0 -8 -14l-16 -6l-37 -9l-13 -18h-19l-25 -11q-2 0 -2 -4l4 -13l36 -16l8 -10l6 -8l16 3l40 -22l26 -7
l9 -10l18 -2l21 -25l21 -7l30 -17l49 -8l27 -12l8 -3l3 -9l2 -12q0 -3 -1 -3l-11 -11l-11 -26q-2 -5 -6 -7t-11 -5z" />
    <glyph glyph-name="equal" unicode="=" 
d="M124 239q-10 4 -16.5 10t-13.5 19l-27 47q1 7 4 12t12 12q13 -6 20.5 -8t17.5 -3l48 -3l17 -9q1 0 1.5 -0.5t2.5 -0.5q7 0 15 12l15 -2l42 12l33 4l20 -16l21 5l55 -7l32 7h17l33 2q5 -2 9.5 -6.5t19.5 -24.5l19 -24q6 -6 6 -15q0 -6 -3.5 -11t-8.5 -5t-12.5 1.5
t-17.5 6.5l-14 4l-5 -5l-82 -3l-8 3l-2 13h-16q-15 0 -22.5 -2.5t-19.5 -12.5l-16 1h-3l-8 -1q-11 0 -16 1t-13 5l-8 -7l-27 1q-4 7 -9 7l-8 -1l-2 -14l-16 10l-13 1h-20q-13 1 -19 -2t-14 -13zM532 162q0 -1 -1 -7t-2.5 -13t-3 -12.5t-1.5 -6.5q0 -3 -4 -11l-46 -7l-23 17
l-10 3q-12 0 -21.5 -5t-13.5 -16l-23 -2l-9 13q-4 5 -5.5 7t-15.5 2l-5 -4q1 -16 -7 -16h-22l-11 2v5q-13 4 -24 4t-20 -1.5t-13 -4.5l-16 -8l-72 9l-17 -15l-19 11l-5 13l-28 41q-3 4 -3 9q0 11 18 12l15 -3l23 3l52 -3l10 1l12 -12l16 1l17 -4q4 19 15 19l36 -6l29 3
l29 -4l23 3l34 -2l34 5l14 2h19l25 -1z" />
    <glyph glyph-name="greater" unicode="&#x3e;" 
d="M131 414l7 -7l47 -10l34 -17l17 -19l26 -1l20 -8l28 -8l-1 -5q0 -11 7.5 -17t17.5 -6q4 0 11.5 -1t15 -1.5t13.5 0t8 2.5q3 -13 10 -18l9 -1l25 -2l11 -17l30 -12l11 -11l20 -5q1 0 7 -2q4 -4 4 -7v-7.5t-0.5 -14t-1 -14t-1.5 -7.5l-15 -18l-14 -22l-14 -9l-24 -1
l-20 -27l-33 -9l-10 6l-8 -5l-20 -24l-33 -6l-30 -19l-28 -6l-22 8l-5 -12l3 -18l-23 -21l-39 -22l-28 -8l-30 -2l-8 6l4 17l-14 1l-4 11q0 14 7 27t17 17l25 9l33 14l35 6l49 30l8 2l29 6h1q3 0 4 5.5t2 11.5l16 7l38 15l14 18l18 -1l26 12q0 1 1 2q0 1 0.5 1.5t0.5 1.5
l-5 11l-35 16l-8 11l-7 9l-15 -4l-40 7l-26 6l-10 17l-17 1l-21 19l-22 7l-29 14l-49 3l-27 18l-9 2l-3 10l-2 11q0 3 1 4l11 10l11 26q3 7 18 14z" />
    <glyph glyph-name="question" unicode="?" horiz-adv-x="482" 
d="M240 648q10 -5 13 -5l14 4l63 -2q16 0 23 -7l17 -13q4 -4 28 -9l11 -2q2 -4 3 -6.5t3 -5.5t5.5 -7.5t9.5 -13.5q14 -20 14 -33q0 -11 -12 -30h-9l-10 -9l1 -11l-10 -9l-18 -21l-32 -26l-9 -9l-8 3q-6 3 -8 3q-5 0 -15 -10q8 -3 8 -9q0 -3 -1 -4l-46 -54q-4 -4 -4 -10
q0 -16 18 -34l-9 -4q1 -10 3 -14t9 -10q-11 -18 -22 -18h-2l-28 5q-13 2 -17 4t-5 7l-4 15l-6 8l-1 8v4l9 5v8l1 7l16 15l30 45l31 29q19 20 36 29q21 11 23 17l5 21l11 25l-4 12l-3 5q-11 22 -16 27q-3 1 -3 3l-6 8l-10 -2l-48 18l-11 2l3 13l-9 4q-4 0 -13 -7l-2 -7l-8 1
l-47 -3l-24 2q-10 -1 -20 -5.5t-33 -18.5q-13 -7 -13 -13q0 -7 6 -16l4 -9l-8 -10q-10 -13 -14 -18t-6 -6l-9 -4l-14 -9q-2 -2 -6 -2l-8 1q-12 2 -15.5 5t-3.5 15q0 11 2 17.5t6 11.5l15 17l7 10l17 11l34 29l32 15l21 11l19 2l22 10h22zM200 73l28 17l13 12l11 6l13 -13
l43 -32q3 -3 4 -11l3 -11l-10 -10l-7 -12l-27 -18l-7 -9q-11 3 -13 5l-14 17l-19 18l-13 18q0 1 -1 1l-17 7l2 8z" />
    <glyph glyph-name="at" unicode="@" horiz-adv-x="969" 
d="M375 203q6 11 14 16.5t23 4.5l3 3h10q3 4 5.5 6.5t6.5 4t9.5 3t15.5 3.5l61 11l18 -2l23 5l41 4q9 2 15 7.5t6 12.5q0 2 -1 3l-5 22l4 32q-3 18 -25 21l-7 11q-6 10 -10 15.5t-8.5 8.5t-10 4.5t-14.5 3.5l-28 6l-27 1l-13 -2q-5 2 -7 4.5t-4 9.5l-13 -6l-15 -14l-48 -24
q-15 -8 -20 -16l-7 -10q-5 -8 -13 -8l-10 2l-14 7l-15 3q-9 2 -15.5 8.5t-6.5 10.5q0 3 1 3l24 18l17 3l26 13l32 11l9 2l21 11l17 -3l59 13l44 -1l20 -7l58 -11l9 -5v-7l-7 -4q3 -17 12 -17q1 0 1.5 0.5t1.5 0.5l16 6q4 0 6 -5l10 -18l10 -8l-2 -36q0 -16 16 -28l6 -72
l-13 -18l15 -18l1 -6l-3 -46l4 -35v-19l-7 -2q1 -14 3 -25t6 -22q1 -2 5 -2t5 -2l4 -15l6 -13l9 -5l11 -2l21 16l32 17l17 21l-3 5l3 9l16 31l2 33l2 14l8 21l5 40q-6 11 -8 16.5t-2 10.5l2 48l-1 15q8 5 7.5 12t-0.5 13q0 21 -28 26l-3 27l-24 37l-4 15l-6 1l-41 37l-20 13
l-20 16l-9 3l-6 11h-10q-5 0 -15.5 1t-15.5 4l-43 24l-43 6l-31 5h-53l-24 -7l-22 -3l-22 -13l-12 3l-13 -4l-54 -30l-13 -2q-14 -20 -24 -23l-13 -5l-43 -42l-8 -6q-15 -11 -36 -48l-5 -9l-10 -2l-5 -10l-6 -25l-6 -7l-3 -10l-20 3q-2 -8 -4.5 -10.5t-10.5 -6.5l-1 -5
q18 -11 18 -22l-1 -34l7 -50l-1 -12l14 -51q-6 -4 -9 -12t-3 -12q0 -13 16 -13q2 0 4.5 0.5t5.5 0.5l18 -22q-6 -8 -6 -11l3 -14h4l19 -49l26 -14l28 -26l28 -5l58 -40l32 -26l14 1l90 -13l14 -1l11 1l19 5l69 7l21 4l37 15l14 4l7 -6q16 5 17 9l4 16l23 3l15 -3l3 -22
q-4 -2 -6.5 -6.5t-6.5 -6.5q-29 -17 -52 -23.5t-43 -11.5l-10 -2q-16 -3 -28.5 -5t-17.5 -2h-2l-51 -11l-18 11l-14 -6q-5 -4 -7.5 -5t-5.5 -1h-4q-5 10 -8.5 13.5t-11.5 7.5q-13 -7 -26 -11.5t-21 -4.5q-6 0 -11 4q-11 0 -12 1l-34 10l-29 7l-11 9l-16 -2l-14 2l-20 6
l-52 34l-9 19l-23 2l-14 26q-7 6 -23 6l-13 15q4 9 4 14q0 8 -11 17.5t-23 19.5v4l-6 2l-6 31l-5 5v11l-10 39l-8 58l3 42l4 12l3 27l24 63l3 11q5 14 12 22t20 16v6l25 28q6 -2 7 -2q7 0 10 6l7 21l9 12q6 11 15 16l15 7l13 16l31 21q14 9 22.5 15t12.5 5l8 -3l13 16l9 2
l92 36q8 4 19 4q5 0 10.5 -1t14.5 -5l8 3l3 9l22 -3l26 6l38 -2l19 4l16 -2l15 1l27 -6l29 -5l21 -12l60 -22l17 -12v-5l-2 -1q-4 -4 -4 -7q0 -4 11 -10l2 4q7 0 10 -2t7 -9v-5q0 -8 2.5 -11.5t8.5 -8.5q8 4 14 4q13 0 21 -10l8 -11l18 -16l12 -11l12 -15l3 -13
q-8 -11 -8 -17q0 -3 1 -5l30 -30l2 -11l8 -23q0 -2 3.5 -7.5t2.5 -9.5l-7 -4v-5l8 -1l7 -48q0 -3 -1 -5l-9 -29l1 -25l-7 -23q-2 1 -7 1q-3 0 -5.5 -5t-2.5 -11q0 -2 1 -3q5 -8 3.5 -10.5t-1.5 -5.5q0 -5 -7 -13t-9 -16l-11 -15l3 -3l-3 -3l8 -6l-1 -3l-9 -8l-11 -19l-8 -8
q-7 7 -11 7q-9 0 -9 -10q0 -6 7 -14q-4 -7 -12 -10.5t-18.5 -6t-22.5 -5.5t-23 -9l-25 2l-9 -1l-4 -5l-28 1l-15 13l-3 4q-6 -3 -8 -3q-5 0 -7.5 5.5t-3.5 5.5q-2 0 -3 -0.5t-3 -0.5t-2 3l-16 17q-5 7 -7 14.5t-2 12.5v3l-10 -11q-15 -17 -38.5 -26t-35.5 -9h-20l-23 -11
l-16 -2l-45 -9l-19 3l-13 -5l-9 -2l-15 1l-32 7l-22 2q-22 2 -39 15.5t-24 31.5l-13 5l-4 21l-7 23l18 36l6 16q2 5 4 7t14 12l38 31l43 17q0 -1 1 -1h4zM327 114l11 -44l-11 -28l8 -10l13 16q11 -10 19 -13.5t29 -8.5l10 -14l34 -3l9 9l10 -5l12 7q5 -2 9 -3t5 -1
q9 0 21.5 5.5t27.5 14.5q24 1 37 4.5t21 13.5l10 13l24 20l1 6l-1 6q8 3 9.5 6t2.5 13q-7 7 -9 11l2 20l-4 45l6 13l-16 9l-8 -2l-45 3l-21 -1l-16 11l-10 -6l-27 -1l-19 -7l-11 6l-14 -8l-73 -35l-16 -12l-13 -19l-17 -10q-4 -4 -4 -9l1 -2l4 -6z" />
    <glyph glyph-name="A" unicode="A" horiz-adv-x="734" 
d="M14 22l14 17l10 19l15 18v5q20 3 20 18v12l15 18l21 46l12 17l13 32l17 26l19 35l20 19q2 2 2 5q0 4 -5 9q8 5 11.5 9t8.5 13l-6 9l6 10l8 23q1 3 12 12l-1 5l39 102q4 11 22 31l-4 11l3 13q5 20 10 24t22 8l3 7l-5 15l-2 8q0 7 6 10l33 22l7 15q9 13 27 14l6 -20h6
l-2 -5l7 -15l14 -18l18 -33l10 -27l12 -22l-12 -4q0 -5 4 -9q11 -6 14.5 -10t3.5 -9l-1 -9l11 -12l13 -20l8 -18l-4 -9l2 -10l7 -9l14 -12l17 -34l9 -15v-12q11 -10 15 -15t4 -10l-2 -7l12 -12l19 -35l17 -27l6 -12q2 -4 3 -6.5t1.5 -5t0.5 -7.5q17 -9 17 -19q0 -1 -1 -2
l-2 -21l2 -7l20 -10l6 -9l3 -9q1 -7 16 -15v-11l17 -17l16 -27l8 -10q5 -7 9 -15t4 -12l-2 -6l-19 -16l-20 -29h-16l-10 -2l-1 9l-6 12l1 10l-1 9q-4 8 -5.5 12t-2.5 12h-8l-4 11l-17 33l-3 17l-25 43q-4 8 -4 20q0 2 0.5 4t0.5 4q-10 5 -16.5 13.5t-10 18t-5.5 17.5t-3 11
l-17 8q-4 -22 -17 -22l-53 9l-18 -1l-13 2l-70 -9l-41 2l-22 -6l-17 6l-13 3q-10 -13 -22 -13l-46 3l-16 -4l-21 -1q-11 -3 -24 -33l-9 -19l-5 -2q-5 -12 -8.5 -20.5t-7 -16t-9 -15.5t-12.5 -19l-1 -10l-7 -11l-27 -60q-3 -9 -22 -13l1 -8q-3 -1 -9 -1h-7q-7 0 -13.5 2
t-16.5 9zM206 257l16 -5l13 2l11 -4l2 4l9 1l63 -4l40 3l16 -7l4 4q3 3 9.5 3t29.5 2l13 2l-2 -5l4 -2q5 0 11 8l13 1q24 2 36 2.5t18.5 2t10.5 4t11 8.5l-4 4l2 3l-2 5h-10q-5 5 -6 11.5t-3 25.5l-1 10l-19 5l-23 46h-7l-30 59l4 11l-3 12l-23 12l-35 70q-2 5 -23 22l-6 -4
l-6 -20l-4 -1q-5 -15 -10.5 -24t-11 -15t-9 -11t-4.5 -12l-2 -12l-22 -48q-9 -19 -11 -24t-8 -11l-4 -10q-3 -10 -6 -12t-11 -3l-1 -11q-3 -26 -9 -37.5t-20 -20.5l9 -14q-7 -1 -9.5 -3t-4.5 -10l-3 -12z" />
    <glyph glyph-name="B" unicode="B" horiz-adv-x="723" 
d="M44 23l13 9l39 17l15 21l8 12l3 93l2 10l-6 14l11 32l-9 -3l-1 22q0 9 1 16t3 18l9 4l2 4l-8 25l6 17l-10 24l5 40l-2 11h-7l-5 17l2 13l-4 5l1 7l-2 28l2 25l-4 14l3 9l2 6l-2 7q-5 7 -6 13.5t-2 26.5l-1 14q8 4 8 11l-1 7q-8 1 -13 2.5t-14 8.5l-17 -2l-2 5h-4v7l10 9
l27 10l10 9q10 9 24 9l18 -2l21 2l12 -4l79 3l7 -7l10 -3l4 4l18 4l40 -4l41 -3q14 -1 24.5 -3.5t21.5 -10.5l9 7l18 -4l12 -3h15l13 -3q16 -10 21 -15t5 -10t-2.5 -13.5t-7.5 -16.5l-5 -12l-8 1q-11 0 -11 -10l-1 -17l-21 -9l-17 -16l-47 -25l-15 -13v-5l14 -7l14 -11
l13 -5l4 4l32 -10q0 -23 9 -23q8 0 16 8l12 1q11 0 15 -2.5t9 -11.5h8l7 -7l8 3l55 -30v-10l10 -5q23 -11 23 -21q0 -7 -4 -15q11 -13 17 -13l8 3q20 -26 20 -40q0 -4 -8 -10l3 -3l-1 -10q11 -14 15 -22.5t4 -16.5q0 -3 -1 -4l-5 -30v-15l-15 -23l-18 -37l-6 -10
q-11 7 -14 7l-11 -4l1 -15l-10 -1l11 -6l2 -6l-35 -29l-29 -20q-16 -11 -22 -14.5t-19 -7.5q-18 -13 -34.5 -20.5t-34.5 -12t-39 -6t-49 -1.5q-24 0 -41.5 1t-32 3.5t-28.5 7.5t-31 13l-7 -10l-21 8l-12 -6q-8 6 -13 8t-16 4l-3 6h-4h-6l-32 -3q-5 2 -12 12l-19 3l3 -9
l-9 -6q-14 -9 -17 -9q-4 0 -10 3l-3 17zM161 49q14 -3 18.5 -5.5t11.5 -10.5l13 -2l36 -7l38 -3l50 -11l47 2l63 -1q8 0 16 4l16 6l16 7l18 16l27 17q13 10 22 31l15 32l9 14l4 20l14 37l-1 5l-7 43q-2 27 -5.5 38t-12.5 21q-13 15 -13 17l-5 14l-6 8l-18 5l-10 1
q-11 11 -16.5 15.5t-9.5 6.5l-72 24l-13 9l-23 3l-17 19q-7 7 -17 7q-6 0 -9 -8l-11 4l-1 -7l-9 -1l-10 5l-24 5h-22l-22 5l-32 3q-7 1 -26 -9l6 -41l-13 -15l1 -15q1 -20 2 -26.5t9 -17.5l-2 -27l1 -31l2 -12q0 -11 -1 -15.5t-6 -11.5q0 -9 1 -13.5t6 -11.5l-16 -15l1 -20
l14 -6l2 -10l3 -34l9 -30q-4 -17 -38 -20zM183 527l2 -11q1 -8 1.5 -15t0.5 -12t-1 -9.5t-5 -11.5q16 3 21 7l6 3l38 1q3 1 8 2t10 3l13 4q8 -7 14 -7q5 0 8 3l17 16l48 14q11 5 23 16.5t17 22.5q3 7 4.5 15.5t1.5 27.5q-29 16 -42.5 21t-26.5 5l-14 -2l-11 7l-12 -2l-49 5
l-22 -3q-18 -1 -30 -3.5t-26 -7.5l-1 -9l3 -36l-15 -24l-1 -4l1 -4v-7z" />
    <glyph glyph-name="C" unicode="C" horiz-adv-x="740" 
d="M43 383q1 0 1 -0.5t1 -0.5h1q6 0 11 12q-5 12 -5 17q0 7 4 14l32 65l18 12l8 17l11 8l10 9l23 8l19 26q11 13 33 21l36 13l24 11l20 12l48 17q24 11 40 12h32l86 9l29 1l11 -1l17 -7l25 1l21 -10l12 1q11 0 18.5 -6t7.5 -15q0 -11 -10 -18l-17 -10l-7 -7q-6 -2 -9 -2
q-4 0 -6 1l-39 18l-10 1q1 1 1 2q0 4 -7 11l-6 1l-27 -4l-36 7l-43 -3l-24 2h-7q-19 0 -29 -5l-32 -13l-15 -1l-22 -12l-18 -6l-34 -19l-10 2l-14 -11l1 -15q-18 -9 -26.5 -14t-12.5 -10l-40 -43l-8 -6l4 -4l-4 -10q-2 -8 -3.5 -12.5t-3.5 -7t-4.5 -4l-7.5 -4.5l7 -7v-10
l-6 -19l-1 -61l-3 -12l5 -12l12 -24l-3 -7l-10 -2l4 -10l20 -23l10 -28l7 -9l3 -11l20 -30l5 -10l9 -8l14 -23l9 -6q2 -2 5 -5.5t6 -8.5l10 -1q7 -6 9.5 -9.5t5.5 -10.5l10 -3l38 -17l15 -4l14 -13q2 -2 13.5 -5t29.5 -8l69 -15q15 -3 28 -3h8l38 3l57 -1l25 12l43 10l21 12
l38 14l26 17h4q11 0 11 -12q0 -8 -4 -15l-5 -9l-7 -22q-5 -7 -13 -7l-25 -2l-58 -20l-64 -4l-68 -14q-7 -2 -13.5 -2h-12.5q-14 0 -30.5 1t-33.5 3l-12 2q-4 21 -23 21q-5 0 -9 -2t-11 -8l2 -6l-95 27l-3 7l-6 -2q-9 0 -29 15l-26 20l-18 13l-8 11l-40 37l-1 13q10 0 10 6
q0 5 -5.5 7.5t-19.5 4.5l-11 2v12q-10 5 -14 9.5t-10 15.5l4 4l-4 4h-7l-32 86l5 3l1 5l-7 29l-1 29q0 11 2 18.5t8 17.5z" />
    <glyph glyph-name="D" unicode="D" horiz-adv-x="826" 
d="M54 12l12 3q17 5 20 5l4 -1l8 9q9 9 9 13v15l6 21l1 10v6l6 4q-5 5 -6 9t-1 9l2 29l1 13l11 11q-6 9 -6 13l-1 16l-6 12l1 28v34l8 16q1 3 1.5 5.5t0.5 5.5q0 8 -11 16l-1 19v9q0 6 10 13l1 27h-12l-3 10l2 26l-5 38l4 11l-7 14l-1 48l-13 15l11 22l1 7l-3 28l-1 16
l-9 1.5t-11 4.5l-13 5v14l17 7h38l21 9q9 4 26 4l32 1l18 -6l12 4l9 -5h16l19 -1l18 -2h1l16 3l33 -11l39 -1l13 -6l55 -6l33 -10l39 -7l27 -9l11 -4l-2 -10l6 -6l-4 -6l2 -2l-3 -4l3 1l17 6l14 4l12 -4l18 -5l11 -7l1 -11l4 -1l19 1q3 0 9.5 -4.5t11.5 -12.5h7
q8 0 15.5 -3.5t22.5 -14.5q17 -11 26 -20.5t20 -23.5l-7 -7l1 -7l6 -10l10 -7q4 -4 9 -22q-9 -4 -9 -10q0 -3 1 -4l14 -21q2 -4 2 -8l-5 -21l2 -24q-1 -11 -2.5 -16t-8.5 -12l-8 -10l-20 -5q-3 -3 -6 -14l2 -2h5l-3 6l10 -7l-5 -7l-3 -12l-8 -13l-11 -16l-38 -24l-19 -30
l-17 -12l-33 -35q-11 -9 -22 -14l-36 -12l-9 -4q0 -6 -1 -8.5t-4 -5.5l-10 -4l-57 -28l-35 -22q-19 -11 -33 -11q-6 0 -15 5q-5 -3 -8 -4.5t-6.5 -3t-9 -3t-14.5 -4.5l-28 -9l-19 -4l-40 -3l-11 -2l-26 10q-14 -8 -19.5 -9.5t-17.5 -2.5l-3 4q-8 0 -12 1.5t-10 6.5l-18 2
v-12q-10 -5 -17 -7t-17 -2q-11 0 -23 3q-42 11 -47 11q-11 0 -11 4v3zM168 448q12 -5 14.5 -7.5t2.5 -9.5q-10 -4 -10 -10q0 -4 1 -5l10 -24l-3 -87l4 -12l-5 -25l4 -4l-2 -18l2 -27q1 -10 -2 -13.5t-17 -11.5l2 -15l17 -10v-12l-2 -59q0 -4 2.5 -12.5t5.5 -17.5q3 -6 3 -11
q0 -2 -4 -10h-9q-9 0 -16 -16q38 -7 48 -6l65 1l23 -2l73 21l11 1l55 21l37 15l15 6l11 9l36 14l28 27l11 5l6 7l6 18l20 11l11 17l21 24l4 12q15 0 19.5 2t4.5 7q0 7 -13 10q16 16 23.5 36.5t11.5 55.5q2 20 4.5 29.5t7.5 20.5q-9 4 -11.5 7.5t-3.5 13.5l-4 1v6q0 5 -1 7.5
t-5 7.5l-9 15l1 5l-10 9l-24 18q-5 4 -11 10.5t-17 20.5h-11q-8 0 -12.5 0.5t-7.5 1.5l-47 25l-21 4l-13 6l-11 2l-2 11q-14 3 -16 3q-5 0 -12 -6q-15 8 -25 10q-15 2 -18 3t-8 7l-8 8q-7 -4 -11.5 -5t-9.5 -1q-13 0 -20 6l-12 8l-30 5l-70 9l-34 -3l-7 4l-5 -4l-5 -10
l-11 5l-2 -14q-1 -15 -1.5 -19.5t-3.5 -12.5l2 -10q5 -15 6 -18.5t1 -8.5l-1 -9l-6 4h-3q1 -14 2 -18.5t6 -12.5v-14l-6 1q-5 -4 -9 -4h-5l-2 -10z" />
    <glyph glyph-name="E" unicode="E" horiz-adv-x="722" 
d="M260 638q17 7 24 7q3 0 4 -1l74 -8l65 4l25 -7l15 3v6q22 2 31.5 4t17.5 5q21 8 26 8l10 -2q-2 -11 -6 -16t-16 -10q-1 -9 -4 -13t-14 -9q-26 -12 -42 -12h-5l-26 2l-22 -3l-45 5l-10 1q-8 5 -13 7t-14 2q-6 -7 -14.5 -9.5t-23.5 -2.5l-15 1l-2 9l-10 -3l-14 -6l-67 6
l-11 -16l4 -4v-4l2 -26l-4 -38l2 -14l1 -11l10 -3l67 -6q7 0 20 -10l15 3q13 5 20 5h1l52 -3l31 -1h28q10 0 15 1t13 6l37 -7l9 2l21 5l38 1l40 5l6 -2t8 -5l10 6q8 6 10 7t8 1l11 -1l11 1v-15l-13 -9l-30 -26q-6 -4 -10 -4h-2l-33 4l-42 -1l-23 5l-82 -5l-15 1
q-6 10 -12 10q-4 0 -6 -1l-22 -9l-64 7l-31 -11l-22 6l-18 -11l-54 4l-4 -7l2 -26l-8 -26l4 -8l7 -9l-7 -21q7 -13 9 -20l-2 -16l4 -45v-1q0 -6 -11 -20q13 -16 13 -26q0 -3 -2 -7l-13 -28l14 -25l6 -93l15 -3l66 -23l22 3q7 0 22 -8q9 9 14 9h2l45 -9l27 3l24 -5l58 4
l17 -3l28 -1l10 -3l-3 7l11 2l46 1l10 4l57 10q20 5 22 5q3 0 12 -3l-6 -21l-11 1q-7 0 -8 -3l-10 -21l-13 -9l-4 -5l-18 2l-21 -10h-1l-24 7l-3 1l-55 -2l-16 2l-5 8q-15 -3 -22 -4.5t-12 -1.5l-18 1l-12 -2l-4 10h-6l-5 -1l-17 -9l-96 -1l-14 -7q-17 11 -25 11l-5 -1
l-25 -7l-28 6l-86 -3q-3 -1 -11 2t-26 10l5 11l12 28l2 26l5 24v37l3 14l-2 113l2 29l-1 11l-3 11l20 1q-6 12 -10 17t-13 12l-2 8l2 36l-4 62l4 24l2 10l-10 3l-4 10l-2 32l-6 10l-1 5l1 12l4 6l27 -7l-8 7q-7 6 -7 10q0 2 2 8l-8 3l-10 -3q-2 24 -3 31.5t-6 9.5l-19 8
l5 10q3 4 16 9l9 3q24 11 37 11l2 -1l72 -12l33 -3z" />
    <glyph glyph-name="F" unicode="F" horiz-adv-x="617" 
d="M67 615q0 13 6 16l30 8l39 13l47 -2q20 0 35 -6q19 -8 25 -8h1l21 5l14 -6l18 -1l27 -5l18 2h72l110 16h14q-1 -8 -2.5 -12t-7.5 -10q-26 -29 -51 -29h-6l-114 -1l-20 5l-56 1l-10 5q-8 2 -18 2l-3 -3l-2 -5l-13 1l-49 4q-5 0 -10 -1t-13 -4l7 -5l-8 -5l2 -21
q-10 -8 -10 -13t7 -19l5 -11l-5 -26l13 -1l3 -5l6 2l14 -4l30 -2l17 -9l6 4l2 5l19 -3l54 1q8 0 19 -1t31 -5l9 6h7l107 2l23 -4l31 11l18 1l31 8l10 -1q-2 -9 -5 -13t-14 -15l-17 -17q-10 -10 -16 -10h-2l-31 5l-37 -2l-13 7l-22 -2l-47 4l-16 1l-13 -2l-9 10l-11 -3
l-20 -11l-15 -3l-18 2l-29 6l-2 -1l-28 -5l-41 4l-27 -4l-12 -2q0 -8 -0.5 -11.5t-4.5 -17.5q-3 -17 -3 -35v-16l3 -38l1 -26q0 -6 -1 -9l-12 -44l2 -6q12 -3 12 -10l-5 -13l-1 -9l6 -2l2 -4l-8 -18l4 -17l-2 -21l8 -32l1 -53l1 -29q-1 -8 -5 -12t-18 -11l-9 -5l-1 3
q-16 -3 -21 -8l-7 -7q-1 -2 -16 -4l-11 -2l-2 23q0 11 2.5 16t10.5 10l-1 7q0 3 4 13l-9 15l3 10l7 86l4 10l-5 18l9 30v5v9l-5 3v5l-3 3l2 12l-3 15v12q0 5 5 10l-1 26l-8 5l2 68q5 4 5.5 6.5t0.5 8.5v7q-8 7 -10.5 13.5t-2.5 21.5l1 15q9 13 9 22l-1 10l-10 -3l-2 12l5 20
q3 10 3 22t-3.5 17.5t-14.5 7.5l2 21z" />
    <glyph glyph-name="G" unicode="G" horiz-adv-x="735" 
d="M39 346q1 19 3 27t10 19q-1 2 -1 5q0 4 6 15l3 11l19 8l-1 17q0 6 2 8l25 32l12 22l13 11l13 19l24 18l8 14l46 19l16 12l18 3l6 5l9 6l10 5q26 10 42 12l43 1l21 9l41 4l25 5l47 -6h7h8q13 -14 15 -14q7 0 13 9h5l2 4l11 -2l28 -12l19 -1q12 -2 12 -10q0 -7 -14 -13
q-15 -12 -22 -12l-9 3q-9 -19 -20 -19h-4l-19 7l-22 6l-16 11l-23 6l-22 8l-57 -4l-33 -1q-25 0 -42 -10l-33 -20l-32 -15l-40 -28l-17 -8l-11 -22q-24 -5 -24 -17q0 -5 4 -12l-9 -12q-5 -8 -6.5 -9.5t-8.5 -5.5l3 -14l-5 -12l-16 -52l-6 -15l-4 -18l2 -11v-10l-3 -9l-4 2
l2 -8q-12 -8 -12 -14q0 -5 8 -13l15 -5v-13q0 -3 0.5 -6t2.5 -8q-9 -8 -9 -14q0 -3 2 -6l13 5l5 -10l10 -33l11 -19l-4 -18l6 -10h5q8 0 13 -5t12 -20l4 -10l5 -5l-12 -7l7 -5l18 4l13 -9l10 -6l11 -10l19 -7l34 -21l17 -6l-3 -10q17 -2 23 -4l15 -5l41 -1l10 -6l10 4l37 3
l20 3l10 1q5 0 8 -1t8 -4l10 6q16 7 22 7h1l15 -1l19 3l-1 5l9 4q13 4 16 6t9 8l2 -3q18 6 17 15l-4 15l1 38l-4 55l8 17v4q0 10 -11 18l-2 10l-2 18l2 11l-10 1l-37 3l-25 2l-10 -1l-21 -2q-3 0 -10 3l3 14q7 2 9 3.5t7 10.5l7 8q9 -4 14.5 -5t12.5 -1h8l115 7l14 -1
q8 -13 9.5 -18t1.5 -11t-10 -12v-9h6l-1 -18l1 -10q0 -8 -1.5 -11.5t-7.5 -8.5l5 -24q5 -6 6 -10.5t1 -12.5q0 -6 -0.5 -11.5t-3.5 -15.5q-12 -1 -15.5 -4.5t-2.5 -16.5l25 -22l-1 -31l1 -9q2 -8 0 -13.5t-7 -13.5l-9 1l-7 -1l-13 -7l-34 5l-33 -12h-51l-63 -8h-3l-21 2
q-15 -8 -25 -10.5t-21 -2.5l-10 1l-31 4l-71 3l-19 4l-27 5l-13 3l-4 12q-6 0 -8.5 1t-5.5 5q-12 -5 -14 -5q-5 0 -18 8l-10 5q-1 8 -2.5 12t-6.5 10q-9 -4 -14 -4q-3 0 -5 2l-5 5l-22 21l-13 26l-12 14l-14 20l-7 17q5 9 6 14t2 13l-5 7l-18 3l-8 18q-5 7 -5 14q0 4 1 9v1
l-7 39q-1 3 -1 6.5v6.5q0 12 5 26l-6 10z" />
    <glyph glyph-name="H" unicode="H" horiz-adv-x="765" 
d="M79 623l16 12l26 12l19 8l15 -6q0 -6 1 -9.5t5 -10.5q-8 -8 -9 -13.5t-2 -23.5l-1 -12l9 -34l2 -20h-4l-9 -23l7 -8l-2 -10l-5 -9l-5 -10l2 -11l4 -8q4 -8 4 -32l11 -3l87 -5l13 -9l33 -4l10 1l3 5l34 -2l4 -1q7 6 14 6l10 -1v-4l6 -4l11 1l54 1l20 2l18 -6q9 13 21 13h2
l25 -2l47 4l28 -1l10 2l3 11l9 22l-2 56l2 12l-7 11l-12 12v21l-3 22l6 11q-3 10 -4.5 16.5t-1.5 14.5q0 9 6 11l13 2l15 11h12q3 1 7 3.5t12 10.5l14 -7l5 -23l4 -13l-14 -52l3 -27l-2 -11h-5q-7 0 -7 -10q3 -5 10 -9l9 -5l3 -13l3 -20l-1 -6l-8 -15l2 -89l-2 -76l8 -12
q-4 -17 -4 -27v-1v-2v-6v-12q-10 -10 -10 -15q0 -2 1 -2l13 -23l-3 -66l11 -67l-25 -22l-8 -16l-7 4l-6 -3l-6 -11l-27 -12l-2 2l-11 3l-1 13l2 12l9 17l-3 15l2 12l5 29l7 25l-4 32l-1 10l13 9q1 16 -0.5 23.5t-6.5 19.5l8 26l-10 9l6 26l-5 3l3 82l-6 5l-5 20l-4 -4
q-8 0 -11.5 -1.5t-9.5 -8.5l-12 -13l-19 8q-8 -2 -14 -4t-9 -2t-5 0.5t-7 1.5q-7 5 -11.5 7.5t-11.5 2.5q-2 0 -2.5 -0.5t-1.5 -0.5l-51 -4l-51 6l-42 -3l-21 5l-32 -9l-49 5l-13 -1l-15 11l-5 -12l-60 1q-12 -12 -12 -22l6 -39q1 -4 1 -8v-8q0 -10 -5 -19l3 -30
q-7 -5 -8.5 -8.5t-1.5 -12.5q4 -6 14 -9l1 -21v-64v-3l1 -12q0 -5 -6 -9l1 -10l7 -30l1 -10q0 -11 -5.5 -19.5t-14.5 -12.5l-25 -12l-22 -13l-13 -6l-3 4h-5q-5 11 -5 20q0 10 2 14l11 25l5 17l7 3l1 16l-8 8q7 12 7 16q0 3 -7 15l-1 9l4 81l-5 22q0 11 8 17l7 6q3 3 4 11
q-15 5 -15 18v2l3 37l-6 16v56l-2 28l1 15l-8 -1l-2 -2l-4 13l4 -4l2 19q18 10 18 21q0 15 -20 18l-7 34v8l-3 39v31z" />
    <glyph glyph-name="I" unicode="I" horiz-adv-x="240" 
d="M67 -3q9 18 9 27v11l13 43v32l22 4l1 4q0 5 -5 13l-12 -1l-2 2l-3 -3l3 25v13l3 36l-1 19l9 14q-8 7 -10 11.5t-2 18.5q0 8 1 13t6 14l-7 8l-1 14l3 47l-4 16l-1 10q4 3 5 5.5t1 8.5l-9 10l4 8l-4 36l6 18q0 10 -11 19v13l-3 40l3 18l-7 10l1 16v28q4 7 15 9l25 2
q4 1 6.5 4t9.5 15l17 5l16 6q1 0 7 -2q3 -11 3 -19l-1 -13l-4 -14l-10 -17l7 -51q0 -7 -2.5 -13.5t-8.5 -19.5v-9l7 -3l-1 -15l3 -40q0 -10 -2 -15.5t-10 -13.5l7 -11l-2 -15l1 -13l-10 -17l5 -13q4 -8 4 -14l-2 -27v-29l-7 -23v-4q0 -8 9 -12l-3 -17l3 -12l2 -21l-1 -8
l-9 -27l9 -5l-3 -8l4 -27l-2 -46l3 -19l1 -13q-43 -40 -61 -40l-6 1l-1 -5l-18 -4z" />
    <glyph glyph-name="J" unicode="J" horiz-adv-x="545" 
d="M7 126l19 13l8 -10l18 -39l21 -17l19 -19h11q34 -30 57 -27l13 1l8 -7q7 -8 10.5 -10t5.5 -2q6 0 13 8q8 -4 13.5 -5t10.5 0h19l27 1l21 9q21 12 35 23.5t18 20.5l5 12l15 24l3 13l7 6l-1 13l2 14l6 35l6 56l5 12l-1 12l1 28l-1 7l3 3h8q6 -3 8 -3q5 0 13 8
q-8 8 -13.5 11t-17.5 4l-1 13l-5 54v6l3 39q0 5 -1 6l-8 18q-2 -2 -2.5 2.5t-0.5 10.5v6l2 29l1 19q0 2 -1 3l-7 16q-2 6 -2 10q0 5 1 10t5 14l1 8l-4 1l-5 -2l-8 7q-12 10 -12 15v1l27 17l28 19l24 9l6 10l12 2q8 -8 10 -14t2 -14l-2 -22l-4 -3q0 -1 -0.5 -2t-0.5 -2
q0 -5 10 -8v-15v-7l-9 -25q0 -2 1 -5l9 -6l5 -24l2 -13q0 -1 -0.5 -2t-0.5 -3l-8 -17l3 -22l-6 -12l7 -25l-5 -18l4 -42v-3q0 -3 -2 -7l-7 -8l9 -20v-20l-1 -29l-7 -20l3 -18l-1 -11l-1 -30q0 -14 -15 -22l-2 -8l-7 -1v-6l13 -1l-1 -12l-7 -25q-5 -24 -10 -24l-20 -13l-6 -8
v-18q-9 -1 -13.5 -2.5t-9.5 -6.5l11 -10l-40 -34q-24 -18 -42.5 -24.5t-35.5 -6.5q-5 0 -15 3q-9 -5 -15 -5.5t-22 -0.5h-19q-13 0 -22.5 2t-25.5 8q-6 17 -17 17q-2 0 -7 -1t-11 -3l-11 -2l-18 7l-30 16l-28 10l-13 11l-10 7l-9 75v7z" />
    <glyph glyph-name="K" unicode="K" horiz-adv-x="715" 
d="M136 654q12 6 20 6q13 0 13 -17v-9q-7 -5 -8.5 -7.5t-3.5 -8.5q16 -13 16 -36l-1 -13q-22 -7 -22 -22q0 -14 23 -13l-2 -92q-8 -2 -13 -5.5t-5 -6.5q0 -2 1 -3l15 -29l-3 -12l1 -36l-3 -11l-10 -10l9 -3l9 3l15 7l29 23q12 8 15 9.5t8 2.5q19 5 23 8.5t8 14.5l12 5l36 22
l16 12l9 11l22 16l50 50l17 8q2 7 3.5 10.5t8.5 12.5l6 8l11 -1q5 0 11 6l-3 5l3 4l-5 10l15 21l12 15l43 21l31 18q2 0 2.5 0.5t1.5 0.5q11 0 11 -11q0 -13 -19 -30q-10 -9 -17.5 -16.5l-12.5 -12.5q-6 -6 -11 -10q-9 -12 -14.5 -19t-10 -10.5t-8.5 -5t-11 -2.5l-5 -9
q-17 -31 -29 -36l-13 -6l-50 -48l-35 -21l-43 -31l-20 -20l-14 -15l-9 -7q0 -8 1.5 -9.5t6.5 -3.5q5 -8 8.5 -10.5t9.5 -7.5q20 -11 40 -25.5t25 -19.5q2 -1 2.5 -2t1.5 -2l8 -25h16q2 0 4 -1l4 -2l44 -33l23 -13l19 -17q14 -10 16 -12.5t6 -10.5l15 -1l39 -36v-20l28 -1
l7 -9l9 -5q-3 -8 -3 -13q0 -8 7 -15q5 -7 11 -7q4 0 10 3l2 8l8 2q3 0 7 -2t12 -7l1 -10l6 -2l37 8h2q9 0 21 -12l-9 -13q-2 0 -3 -0.5t-2 -0.5q-5 0 -8 -0.5t-9 -4.5q-8 -6 -23.5 -11.5t-36.5 -12.5l-9 -2l-5 -6l-9 5l-14 20l-17 10l-8 7l-8 -2l-8 8l-80 54l-29 33l-28 15
q-31 17 -38 41l-9 -2l-16 11l-35 23q-10 7 -10 10l-1 16l-5 11q-13 -14 -22 -14h-4l-28 17l-20 10l-39 31l-13 6l-5 -19l2 -113l-1 -21l-4 2l-4 -8l1 -11l2 -19l9 -13q1 -1 1 -2l-1 -34v-6l-5 -4l5 -16v-3l-24 -11l-19 -13l-5 4l-23 -9l-8 -1l-14 -5l-7 13l5 12q6 15 11 28
q3 6 4 11l5 44l3 14q11 2 15 6.5t4 15.5l-1 17l-14 -2l-4 20q0 10 10 18v11q-5 6 -6 9.5t-1 10.5v9l1 38l-1 41l14 7l3 5l-6 28l6 8l-10 5q-2 6 -2.5 9t-0.5 23l-1 11q11 6 13.5 10.5t2.5 14.5l-17 8l-2 13l-2 32l-3 17l2 20l-11 11l1 6l-4 38l-1 32l-15 18l1 6z" />
    <glyph glyph-name="L" unicode="L" horiz-adv-x="607" 
d="M86 11v7l7 5q1 17 3.5 24t13.5 16l-4 14l2 50l-2 13l10 16l-11 8l7 16l3 15l6 12l-7 14l2 11l-2 8l1 14l-2 15l3 37v22l9 19l3 11l-12 5l-3 54q8 2 11 9l-5 25l-10 2q-4 17 -5.5 33.5t-1.5 39.5q0 14 1 18.5t4 12.5l-5 11l-3 28l-6 12h-6l-8 13l10 9l12 5l14 12l28 9l8 5
l10 3l11 -4h6v-6l3 -3l-1 -36l1 -17q0 -9 -2 -12t-7 -7l-3 -10l3 -3l7 1v-6l-3 -3l6 -20v-1l-3 -31l3 -28v-10l-4 -39h-7q-2 -5 -3.5 -8.5t-1.5 -7.5q0 -15 13 -19l-1 -11l1 -77q1 -17 -0.5 -29t-6.5 -26l-4 3q-5 -7 -5 -10q0 -2 0.5 -3.5l1.5 -4.5l11 -3l2 -16v-15l-1 -2
l-2 -48l-1 -15q-8 -6 -8 -11q0 -4 8 -10l1 -28l-3 -29q0 -14 9 -19.5t30 -5.5q6 0 13.5 0.5t18.5 2.5l3 -4l12 -1l16 -7l10 -1q7 1 12 10l61 -3l38 1l41 5l7 -1v-10q16 -6 23 -6q4 0 15 3q0 7 2.5 10t10.5 7l8 -1q10 0 29 8q5 -6 8 -7.5t8 -1.5q12 18 37 18l23 -3l-6 -9
l-11 -7l-10 -10l5 -11q-13 -13 -19 -13l-20 -2l-14 -9l-11 -3h-1l-26 4l-67 -3l-63 6l-49 -3q-17 0 -24 6l-13 7l-11 2v-11q-9 -3 -14 -4t-11 -1q-8 0 -16.5 1t-22.5 4l2 -4l-15 2q-6 1 -8 1.5t-6 5.5l-10 -1l1 -3l-13 -3l-64 -7l-11 -2q-12 0 -12 9v9z" />
    <glyph glyph-name="M" unicode="M" horiz-adv-x="864" 
d="M82 203q5 4 6.5 7t2.5 9l5 3q-2 9 -3 12l-6 12q0 2 -0.5 3.5t-0.5 3.5q0 7 8 16q-5 8 -6.5 13t-1.5 12v3l3 60l-3 52l1 11l16 -5q5 6 5 11v3l-22 2l-2 24l16 1l2 10q0 8 -14 14l-5 27h5l1 6l-8 48l1 23l-9 19q0 10 18 18l9 -2l6 13l10 4l22 17q7 5 13 5l10 -2
q1 -11 3.5 -14.5t11.5 -7.5q1 -6 2 -9.5t3 -7.5t6 -10.5t11 -17.5l-4 -11l-5 -16l2 -6l15 -7l12 -37l-10 -15l6 -3l4 -10q9 -1 13.5 -4t10.5 -14l16 -35l18 -51q-13 -11 -13 -18l5 -12l11 -1q8 -1 10.5 -3.5t5.5 -10.5l-9 -14q6 -7 10 -7h6l6 -9q19 -35 19 -43l-4 -15
l-3 -11l9 -5l10 -2l11 -15l19 -20l5 -19l11 -10l13 -32l11 -12l16 -31l8 -7l12 11l35 40l18 31l16 30l24 41l45 105l18 27l5 31l25 56l4 15l6 2l6 5v4l8 4l-1 8l-9 4q2 12 4 17t6 7l9 4l9 7q-4 7 -6.5 10.5t-8.5 11.5q8 11 8 18q0 3 -1 5l9 10l15 23l29 24q11 9 15 12.5
t7 3.5l12 -3l-3 -33l4 -4l9 1q14 0 14 -8l-1 -19l-4 -16l-6 2l-2 -9l7 -18l2 -104v-5q0 -8 -4 -13l-13 -18q-2 -2 -2 -12q4 -6 7.5 -7.5t12.5 -1.5l1 -18l-2 -81l8 -35l4 -61l4 -41q0 -8 -4 -20q6 -8 7.5 -13.5t3.5 -27.5l2 -38v-1q0 -7 -4.5 -17t-11.5 -18q-6 -6 -11.5 -10
t-9.5 -4q-1 0 -7 2l-9 -6q-6 -5 -9 -6.5t-8 -1.5l-8 1l1 12l4 28l-1 20l9 59l-5 26l-3 57l-3 20l1 49l-2 32l2 19l-7 63l6 13l-8 3v12l-7 29l1 28l-5 12l-12 -3l-4 -6l2 -14l-26 -39l-1 -11l-8 -8l-5 -13l-7 -10l-3 -18l-13 -29l-2 -11q-16 -13 -22 -24l-16 -36l-44 -75
l-31 -58l-8 -12l-29 -27q-5 -3 -5 -8l1 -2q3 -12 3 -15l-1 -5q-9 -2 -13 -5.5t-8 -13.5q-5 -12 -8 -18.5t-7 -10.5t-10 -6.5t-16 -4.5q-11 12 -13.5 17t-4.5 16l-4 4q0 7 -2 9.5t-10 6.5l-4 -4l-7 13l-12 32l-10 14l-11 30l-12 18q4 8 5 12.5t1 9.5q0 8 -3 11l-16 13
l-61 121l-15 32h1l3 13l-8 16l-3 15l-10 -5l-6 10q-7 13 -11.5 21t-7.5 15t-5 13.5t-5 15.5q-8 -1 -11 1t-5 7l-7 -16h-8l-2 -4q5 -7 6 -11t1 -9l-3 -37l-1.5 -12t-1 -7t-2.5 -5.5l-6 -7.5l12 -24l-2 -12l-1 -35l-3 -21l3 -105l-6 -16q5 -9 5.5 -14t1.5 -14v-4v-6
q-12 -2 -16 -7t-6 -19l18 -6l1 -11v-11q0 -15 -4 -18l-37 -25l-18 -15l-7 -1l-10 1l-1 6l-2 9l9 23v47l8 59l-1 31l-1 11l2 15z" />
    <glyph glyph-name="N" unicode="N" horiz-adv-x="653" 
d="M83 595q14 8 18 12t7 12l8 5l23 27q2 2 6 2q11 0 17 -14l22 -43l9 -11l8 -15l-3 -3l9.5 -9.5t6.5 -8t6 -10.5t9 -16l25 -42q8 -11 8 -17t-4 -11l20 -11l-3 -9l8 -10l20 -29l15 -14l5 -16l44 -47l-9 -5q2 -10 6 -13t16 -5l23 -32l-7 -1l13 -9q14 -10 17.5 -15t5.5 -19
l7 -7l-1 -7q0 -10 7 -23l11 -7q10 -5 15 -7t7 -4l21 -32l11 -7l14 -12l5 11l-1 59l10 24q-6 7 -8 10.5t-2 8.5t1 7l6 20l3 70l8 15l-6 15l4 23v1q0 6 -12 11l-2 127q7 1 9 4t3 13l-15 11l-2 17q-2 22 -6 29t-15 6q-2 8 -2 12q0 18 42 29q3 5 5.5 8.5t6 5.5t8.5 4.5t14 6.5
q6 -10 6 -18l-2 -14l3 -11l-1 -19l1 -41q0 -12 -3 -21l-4 -20v-1l8 -32l-2 -24l3 -11q-2 -5 -11 -9q7 -16 7 -18l-2 -40l2 -32l-6 -23l2 -32l-3 -45l3 -26l-3 -17l2 -46l-1 -13l-3 5q-8 -7 -8 -12q0 -9 14 -19q4 -17 4 -27q0 -19 -7.5 -37t-27.5 -48l-7 -11l-19 -11l-4 11
l-23 35l-29 37l-22 38l-8 10l2 11q0 11 -17 25q-23 18 -27 24l-27 48l-14 17l-9 25q-9 20 -31 20l-6 12l-28 46l-8 26l-16 18l-3 -4l-8 5q-34 57 -64 73q4 12 4 18q0 12 -9 12l-11 -4q-8 8 -13 8l-10 -5l11 -23l-12 -4l3 -8l-4 -21l2 -42l-3 -14l-8 -4l1 -12l8 -28
q1 -1 1 -2q0 -8 -12 -24l4 -20l4 -11v-144l6 -42v-1q0 -1 -0.5 -1t-0.5 -1l-6 -28l1 -6q9 -5 9 -11q0 -5 -5 -14t-19 -27l-6 -9l-11 1q-10 -11 -15 -11h-1l-11 1l-8 -2l1 12q0 12 4 18l11 14l8 12l-11 10l3 11l6 14q-5 15 -5 17q0 1 0.5 1.5t0.5 1.5l7 26l-2 56q4 7 15 10v5
l-11 13l2 11l-2 10l3 28l-1 2l-6 21l3 28l-2 20q0 6 3 10t11 9l-1 12l-7 16q0 5 3 14q-9 8 -9 16q0 5 1 10.5t5 19.5l-5 7l-1 14l-4 34q0 2 1 5.5t3 8.5v11q0 31 -5 37l-22 27l4 11z" />
    <glyph glyph-name="O" unicode="O" horiz-adv-x="911" 
d="M40 308l3 27l24 63l3 11q5 14 12 22t20 16v6l25 28q6 -2 7 -2q7 0 10 6l7 21l9 12q6 11 15 16l15 7l13 16l31 21q26 20 35 20l8 -3l13 16l9 2l92 36q8 4 19 4q5 0 10.5 -1t14.5 -5l8 3l3 9l14 -2l8 -1h2l24 6l38 -2l19 4l16 -2l15 1l17 -6l29 -5l21 -12l60 -22l6 -5
l11 -7v-5l-2 -1q-4 -4 -4 -7q0 -4 11 -10l2 4q7 0 10 -2t7 -9q-1 -11 1 -15t10 -10q8 4 14 4q13 0 21 -10l8 -11l18 -16l2 -11l12 -15l3 -13q-8 -11 -8 -17q0 -3 1 -5l30 -30l2 -11l8 -23q0 -2 -2 -12l-7 -4v-5l8 -1l2 -11l5 -37q0 -3 -1 -5l-9 -29l1 -25l-7 -13q-2 1 -7 1
q-3 0 -5.5 -5t-2.5 -11q0 -2 1 -3q10 -17 10 -21t-2 -7q-7 -6 -9.5 -10t-4.5 -12l-11 -5l3 -3l-3 -3l8 -6l-1 -3l-9 -8l-11 -19l-8 -8q-7 7 -11 7q-9 0 -9 -10q0 -4 8 -14q-8 -14 -19 -24.5t-31 -22.5q-17 -11 -36 -21.5t-37 -19t-33.5 -14.5t-27.5 -9l-10 -2
q-16 -3 -28.5 -5t-17.5 -2h-2l-19 1l-12 -2l-18 11l-14 -6q-5 -4 -7.5 -5t-5.5 -1h-4q-5 10 -8.5 13.5t-11.5 7.5q-13 -7 -26 -11.5t-21 -4.5q-6 0 -11 4q-11 0 -12 1l-34 10l-29 -1l-11 9l-16 -2l-14 2l-20 6l-62 14l-17 14l-22 8l-23 24q-7 6 -23 6l-13 15q4 9 4 14
q0 8 -8 13t-28 8v4l-6 2l-6 11l-5 5v11l-10 29l-2 10l-8 43l3 42zM93 370q18 -11 18 -22l-1 -34l7 -50l-1 -12l16 -26q-12 -8 -12 -14q0 -13 16 -13q2 0 4.5 0.5t5.5 0.5l18 -22q-6 -8 -6 -11l4 -8h4l20 -19l26 -14l36 -30l28 -5l15 -16l51 -19l42 -18l14 1l90 -13l14 -1
l11 1l19 5l49 -3l21 4l37 15l14 4l7 -6q16 5 17 9l4 16l49 42l20 35l8 14h6l6 13l-3 5l3 9l2 40l8 19l2 14l7 5l5 30q-6 11 -8 16.5t-2 10.5v1l2 47l-1 15q15 10 15 20q0 21 -28 26l-3 27l-24 37l-4 15l-6 1l-9 11l-22 26l-20 13l-20 16l-9 3l-6 11h-10q-5 0 -10.5 1
t-10.5 4l-43 24l-43 6l-31 6l-30 -1h-23l-24 -7l-22 -3l-22 -13l-12 3h-1l-12 -4l-54 -30l-13 -2q-14 -20 -24 -23l-13 -5l-43 -42l-8 -6q-15 -11 -36 -48l-5 -9l-10 -2l-5 -10l-6 -25l-6 -7l-3 -10l-20 3q-2 -8 -4.5 -10.5t-10.5 -6.5z" />
    <glyph glyph-name="P" unicode="P" horiz-adv-x="648" 
d="M68 629l8 3l39 15l26 10l98 -5l21 4q6 2 12.5 2h13.5h18l32 -3l22 -1l8 1l18 1l3 -1l8 -9h44l25 -10l12 6l31 -6l9 -9q8 -9 15 -11l37 -2l33 -19l18 -10q-3 -6 -3 -7q0 -6 11 -14l1 -13l7 -20l-8 -27q-5 -17 -11 -22t-23 -10q-2 -1 -5 -1.5t-7 -2.5l11 -9q-2 -8 -5 -12.5
t-11 -12.5q-12 -1 -17.5 -3.5t-12.5 -10.5l8 -4l-19 -15l-25 -11l-11 -8l-29 -7q-7 -1 -26 -14l-17 -10l-7 2l-22 -8l-41 -10l-26 -9l-24 2l-14 -7l-14 1l-10 -4l-13 2q-14 0 -29 -6l-41 -17l-10 -4l-2 -9l4 -56l-4 -10l7 -49v-4v-6q-15 -2 -15 -11v-2l12 -27l4 -63l2 -24
q0 -13 -10 -16l-16 -5l-15 -14l-12 -1l-23 -12q-4 -2 -5 -2q-11 0 -11 13q0 5 1 7l10 18l-3 29l10 79l-7 36l9 50l-2 18l8 30v15h-7l-1 10l2 9l6 14l-1 8l1 12l-7 10l-3 55l2 13l1 22l4 15l-7 18v1l2 33l-1 8l8 5l-2 27h-12q-3 15 -3 23t3 31q1 0 1 1q0 6 -5 6l-15 5l-8 7
l-9 1zM167 536q15 -11 15 -22q0 -3 -2 -7l-6 -23l6 -20v-25l5 -58l-2 -8h-5q-10 0 -10 -10q0 -7 5 -9l15 1h44l12 2l8 -11l14 3l36 10l67 7l39 12l34 11q21 6 25 13l10 14l19 13l2 8l13 8l5 7l34 32l6 20l6 17l-8 15l-3 12l-35 35q-9 11 -11 12.5t-7 3.5l-6 -5
q-29 12 -59 19.5t-48 7.5h-2h-45l-41 7l-28 -10l-63 2q-28 -5 -28 -31l-1 -37l-1 -10z" />
    <glyph glyph-name="Q" unicode="Q" horiz-adv-x="911" 
d="M135 477q10 6 12.5 10.5t4.5 15.5l8 7l21 23l97 61l11 10l15 4l90 34l22 2l10 1l10 -6q13 10 20.5 12.5t21.5 1.5h11h1h4l30 2l18 1q22 0 48.5 -4.5t37.5 -9.5l24 -13l56 -22q9 -5 9 -11l3 -14l5 -9l8 2q7 0 19 -10l-5 -4l8 -17l15 -3l20 -4l13 -15l15 -11l6 -17l11 -15
q5 -8 5 -13q0 -3 -1 -4l-6 -14q0 -1 -0.5 -1.5t-0.5 -1.5q0 -7 16 -10l6 -10q16 -30 16 -46q0 -8 -8 -17l9 -8l3 -54l-2 -11l-10 -45l-8 -6q0 -7 -2 -11l-5 -8l6 -15v-3q0 -5 -3.5 -10.5t-12.5 -15.5l-10 -13l5 -11l-22 -33q-6 5 -12 5q-4 0 -11 -5q-1 -2 -1 -5q0 -6 6 -16
q-26 -39 -124 -83l12 -10l36 -5q5 0 16 -15l6 -8l10 -4l4 5q24 -5 41.5 -6.5t35.5 -1.5q24 0 39 4t31 15q17 11 24 15t12 4q12 0 12 -11q0 -19 -20.5 -34t-49.5 -17l-91 -7l-46 -7l-53 7l-21 -1q-13 0 -32 8l-46 17l-20 3l-20 9l-30 5l-12 8l-9 6q-13 -7 -20 -7q-6 0 -8 2
l-8 8l-11 6l-2 -1l-50 -12l-45 15h-35l-16 8l-66 11l-33 10l-10 2l-13 13l-23 9l-22 24l-24 8l-12 15l2 12q0 7 -3 10l-36 19q-5 3 -10 15t-9.5 29t-7 36.5t-2.5 36.5l4 34l5 18l1 21l26 65l2 7q3 8 10.5 19t21.5 30q11 14 15 18t8 4q6 0 9 -1zM108 341l2 -18l-2 -36l4 -20
l1 -17l7 -12l5 -12q-9 -9 -9 -18q0 -5 3 -6l22 -7l16 -19q-3 -6 -3 -8q0 -9 18 -20l6 -14l21 -13l17 -14l52 -21l22 -19l28 -10l25 -9l24 -2l21 -8l9 -4q18 8 42.5 14.5t38.5 6.5q8 0 17 -8q8 5 10 5h15l10 2l16 -11l15 -1l25 -7l25 9l17 3l25 23l10 -5l16 12l11 16l31 20
l18 22l9 11l7 -6l10 18l-1 12l-1 11v2l4 12l2 19l17 36l4 22l2 13q-9 18 -9 28l2 48v18q5 2 8.5 5.5t3.5 5.5l-4 13l-3 11h-15l-3 8l-3 27l-14 20l-13 29l-20 20l-19 23l-16 10l-6 13l-4 -3l-12 8l-16 13l-29 6l-40 23l-46 9l-37 8l-23 -2h-24l-20 -6l-24 -3l-25 -12l-14 1
l-62 -30l-16 -4l-27 -23l-14 -5l-25 -25l-25 -23l-19 -22l-20 -30l-12 -8q-7 -3 -8 -15q-5 -22 -9 -29.5t-13 -7.5q-6 0 -10 1l-15 -13q0 -6 3.5 -8.5t17.5 -9.5z" />
    <glyph glyph-name="R" unicode="R" horiz-adv-x="685" 
d="M69 638l10 3l7 3q17 7 32.5 10t29.5 4l35 2l15 2q10 -9 15 -9h1l49 9l11 -6q1 0 2 -0.5t2 -0.5l12 1l34 -1h69l52 -9l33 -2l27 -14l30 -9q34 -12 34 -52q0 -10 -2 -19t-7 -23l-17 3q1 -8 2.5 -11t6.5 -6l-5 -11l-11 -11l-6 -8q-4 -4 -16 -2q-2 -3 -2 -7l4 -8l-6 -8
l-11 -6l-22 -25l-16 -6l-16 -11l-10 -1q-3 -8 -6 -12t-8 -6l-12 -5l-15 -5h-12l-24 -8l-7 -1h-4l-14 -11q-5 3 -8 3t-6 -2q-1 -2 -1 -4q0 -4 7 -11l-3 -8q-10 -8 -10 -13q0 -1 2 -5h10q4 4 6.5 5t8.5 2l10 -11l-5 -4q1 -15 10 -15l10 1l10 -13l28 -31l19 -17l21 -25l-3 -13
l21 -11q4 -9 7 -12t14 -11l22 -24l15 -17l8 -9v-6q0 -10 5 -16l20 -6l9 -7l17 -16l50 -31l10 -10q1 0 1.5 -0.5t1.5 -0.5h1l31 5h1q7 0 19 -11l-11 -7l-12 -9l-18 -5l-35 -12q-9 -4 -31 -4h-17q-8 11 -12 17t-7 8l-25 15l-12 10l-6 7q-7 7 -9.5 10.5t-3.5 5.5l-4 28l-19 7
l-16 24l-19 7l-11 16l-8 2l-7 8l-16 13l-9 11l-14 8l-17 20l-10 10q2 8 2 11q0 11 -8 13l-24 5l-7 8l-28 21l-14 21l-17 9l-14 13l-13 5l-31 24l-10 3l-3 -13l-5 -12l-1 -23q7 -4 7 -10q0 -5 -1 -7l-4 -12l-2 -28l-2 -22l2 -14l-4 -12l7 -12l-1 -10l-3 -26l1 -16l10 -79v-3
q0 -9 -6 -15l-10 -9l-8 -7h-17q-8 0 -15 -7l-26 -21q-2 -2 -9 -2q-10 0 -10 6q0 3 3.5 10.5t8.5 18.5q5 10 5 25l1 33l6 17l-3 36l5 9l8 -1q12 0 11 20l-7 6q-7 5 -9 9t-2 10l3 19l-5 6l-1 16l1 22l4 38l-4 47l3 23l-6 13q1 6 18 12v18q-6 9 -13 9l-1 22l-2 38l3 19
q-7 12 -9 20t-2 24v3v19l-3 3l3 36q0 9 -2 14.5t-7 13.5l-19 11zM176 452l-2 -16v-14l-4 -23q1 -12 21 -20l-1 -4l44 1l6 -6l9 2l16 2l32 12l11 -4l11 5l44 16l16 11l33 14l24 40l27 29l2 16l9 25l2 14q0 21 -12 30l-16 12l-17 13l-16 1l-23 8l-5 1h-8l-6 14l-13 2l-7 -12
l-69 6l-6 -5l-8 1l-68 -8h-10l-8 -9q-11 0 -15 -8.5t-3 -33.5l1 -32l1 -21v-13q-14 -11 -14 -19q0 -12 18 -16z" />
    <glyph glyph-name="S" unicode="S" horiz-adv-x="652" 
d="M74 98q11 -5 14 -8.5t5 -13.5l11 2l10 -6l8 -12l33 -9l33 -15l67 -14q13 -8 15.5 -9.5t4.5 -1.5q7 0 8 10l7 1l61 -4l19 10l11 -4l18 4l21 7q17 4 25 16l14 19l17 18q2 4 4 8.5t4 14.5q19 0 19 12l-2 10l-1 12l8 9l15 45h5l-2 29l-10 27l-4 11l-14 1l-36 22l-44 17
l-10 11l-14 8l-10 -5l-3 -5l-67 3l-15 18l-12 -15l-11 2l-28 6q-33 8 -45.5 11.5t-22.5 10.5l1 11l-17 7q-2 0 -3.5 -0.5l-4.5 -1.5q-9 6 -14 11t-8.5 10t-6.5 12t-6 18l4 1l-10 11l-1 16l-2 16v5l6 20l6 11l6 15l16 12q11 8 11 28l9 7l53 40l23 14l38 19l52 17l12 4l13 2
l30 3l15 6l49 -6l22 1l14 -5l24 -6q25 -5 25 -16q0 -4 -1 -7l-10 -4l-13 -11q-6 -5 -14 -8t-25 -8l-10 6l-26 19l-14 2l-40 8l-23 -1l-27 -1l-48 -25l-34 -17l-23 -18l-11 -13l-21 -37l-19 -13l-4 -12l13 -7q-2 -5 -2 -11q0 -4 5 -16l-19 -10l5 -11l10 -4l18 -3l19 -16
l40 -18l11 -10l34 3l30 -3l2 -6l12 2l17 2q5 0 7 -1l26 -6l13 -3q2 -10 5 -16.5t8 -6.5q1 0 1.5 0.5t1.5 0.5l22 14l26 -2l19 1q16 0 30 -12l25 -22h3q4 0 7 1h1q5 0 14 -9t20 -25l8 -10l2 -13l5 -46q0 -6 -1 -12t-4 -16l-20 1l-7 -3l2 -13q7 -4 9 -7t2 -11q0 -20 -4 -26
l-26 -34l-9 -15l-19 -20l-19 -18l-10 -5l-77 -50l-38 -12q-14 -6 -21 -6q-3 0 -10 3q-10 -5 -17 -7t-16 -1l-23 1h-44l-16 4l-58 4l-32 18l-14 -3l6 -5l-14 2l-14 2l-38 28l-26 3l-27 17q-17 11 -17 17q0 9 7.5 24t18.5 26q9 11 15 14t16 5z" />
    <glyph glyph-name="T" unicode="T" horiz-adv-x="695" 
d="M7 595q1 15 3.5 21.5t11.5 12.5l36 28q10 5 21.5 6.5t34.5 0.5q6 -14 16 -14q9 0 23 11l22 -2l43 -14l36 2l28 -7l57 -3l24 -13l11 -1l1 4l12 -1q26 0 35 -2.5t19 -9.5l17 -4l9 6l16 1l21 9l36 -1l24 5q9 -3 14 -4t11 -1q47 0 91 22l6 -3l3 -11l-9 -7l-12 -21l-39 -15
l-18 -12q-6 -3 -12 -3h-1l-28 5l-66 2l-46 5l-44 -3l-17 3l-7 -1l-5 -23l2 -12l1 -16v-4l-5 -23l1 -18l-2 -15l3 -11q-11 -1 -14.5 -4t-4.5 -14q16 -3 18 -9l-2 -35v-23q0 -14 -19 -32q3 -7 6.5 -9t12.5 -4l3 -6q-8 -5 -9.5 -8.5t-2.5 -12.5l12 -13v-24v-21q1 -7 -7 -15
l5 -12l-2 -13l4 -18l-2 -14l1 -12l1 -20q-19 -8 -19 -22q0 -11 18 -21l7 -82l-7 -6l-9 -4l-26 -22l-9 -1h-7l-6 -7q-6 4 -9 4l-6 -2l-6 13q1 2 1 4t1 4l4 22l-4 26l4 38l3 56l5 42v11l9 12l-12 45l5 31l-3 41l-2 28l-1 1q0 6 2 12t7 22l-3 11q-11 27 -11 37v1l1 14l-6 25
l1 14l-6 36l-2 12l15 30q10 5 10 11q0 5 -1 8l-27 5h-9l-10 1l-22 9l-44 -4l-67 7l-72 -4l-12 2q-11 -14 -22 -14h-3l-14 2z" />
    <glyph glyph-name="U" unicode="U" horiz-adv-x="801" 
d="M65 320q4 -1 7 -1.5t6 -0.5q7 0 7 6q0 7 -10 11v20l-10 3l12 60l5 11l5 9l11 34l8 12l4 11l12 12q-2 6 -2 9v7q0 10 4 19.5t18 29.5l-9 6l-11 -6q-2 6 -3 11.5t-1 7.5q0 8 8 14t19 6l12 -1l4 9l13 2l48 23l14 6q10 -13 10 -21q0 -5 -4 -8l-10 -8l-21 -31l-7 -5l-1 -15
l-13 -20l-18 -25l-11 -17l-12 -48l-12 -37l-2 -29l-14 -39l-1 -18l-8 -37l4 -24l-5 -18l17 -55l1 -11q-14 -2 -14 -19q0 -9 17 -12l5 -12l9 -23l23 -32l4 -11l10 -4l18 -15l46 -14l30 -8l18 -6q12 -15 19 -15q6 0 14 18l57 3l10 -9l11 5l35 13l13 10l37 17l25 21l12 2l33 21
l23 6l4 6l-9 6l11 7l16 13l30 48l15 12q4 5 4 20v6v29l1 36q8 6 10 10.5t1 15.5l-17 13l-5 109l6 10q-5 9 -5 14q0 8 5 21l-5 4l-1 12l-4 42q0 6 8 19l-22 23l6 16h9q16 16 25 19l11 4l10 6l13 -2q9 14 13 17t15 3l5 -13v-11l-1 -30l-10 -36l1 -18l-2 -14l6 -23v-1
q0 -8 -11 -27l-7 -13l-11 -3l7 -10q13 -17 15.5 -21.5t2.5 -10.5l-5 -29v-16l-6 -2l4 -5l-4 -16v-2l9 -59l-3 -12q-12 -5 -12 -13t13 -18l1 -42l-4 -12q-2 -8 -2 -7q0 -5 6 -17q5 -10 5 -20q0 -8 -7 -19q10 -10 12 -14l-1 -39l2 -49v-6q-12 -2 -20 -7t-31 -23l-4 -7l-9 1
l-19 -15q-5 11 -5 20q0 11 1.5 15.5t6.5 10.5h7q-1 8 -3.5 11t-10.5 5l1 49l4 3l-3 23q-5 3 -8 3q-1 0 -2 -0.5t-3 -0.5l-5 -5h-8q-6 0 -9 -3l-12 -8l-20 -9l-73 -50l-24 -9l-32 -17l-43 -15l-33 -10q-20 -9 -30 -9h-18l-30 -10l-27 -1l-17 -2l-15 2l-36 7l-22 10l-16 5
l-20 19l-8 9l-16 -2l-10 8l-5 10l-18 14q-3 5 -4 11t-1 20v8l-15 8l-6 17l-7 30l-5 11l14 25q-13 11 -18 19.5t-5 21.5q0 12 4 20l12 29l1 39z" />
    <glyph glyph-name="V" unicode="V" horiz-adv-x="581" 
d="M4 601l1 9q0 3 8 11q17 -1 29.5 7t23.5 28q8 4 10 4q1 0 7 -2l6 -18l5 -14q0 -5 -8 -13h11l2 -12l6 -29q1 -3 1 -8q0 -10 -9 -19l12 -2l2 -13q0 -9 4 -11l11 -10l10 -36l18 -29l4 -28l13 -22l-6 -16v-13q1 -13 2 -15t9 -4q5 7 10 7q1 0 2 -1q2 -2 3 -2l16 -49l22 -53
q2 -6 2 -11l-2 -19q5 -5 6.5 -8.5t2.5 -8.5q6 3 10 3q5 0 7 -5l8 -26l25 -46l-3 -17v-1q0 -11 7.5 -19.5t15.5 -8.5q7 0 11 9l38 96l13 23q2 10 5 13t14 3v13q0 11 1 16t4 14l-4 8l12 26l11 35l15 9q5 5 5 8v1l-5 23l25 66v7v12l8 7l-7 30l4 6l-5 7l9 15l-3 6l6 6
q0 6 0.5 8.5t2 6t4.5 10t10 18.5l7 16q-2 3 -4.5 6.5t-2.5 5.5q0 7 8 20q2 4 5 4l34 9l31 11q15 -2 15 -20q0 -11 -7 -23l-8 -13l-5 -26l-33 -71l-13 -50l-10 -12q0 -14 -3 -20.5t-14 -16.5l-17 -17q1 -19 -1.5 -30.5t-7.5 -19.5l-19 -33l-18 -60q-7 -15 -11 -26t-4 -15
q0 1 2 -7l-6 -11l-10 -27l-8 -13l-6 -29l-10 -23l1 -19l-18 -25q-2 -4 -3 -7.5t-1 -11.5l-17 -11q-23 -16 -35.5 -22t-26.5 -9l-10 19l-23 63l-10 38v1v13l-4 11l-4 -1l-15 41l5 11q-8 2 -11 5t-7 11q2 5 3 8.5t1 5.5q0 4 -1 8q-3 4 -5 6l-3 3l-15 9q-4 1 -4 15l1 12l-5 8
l-4 16l-15 13l-17 45l-8 13l1 13l-12 17l15 13l-9 9h-9q-5 0 -8 1l-30 58q6 9 6 14l-3 11l-16 6l-15 28l-9 13l-3 21l-6 11h-6l-11 17z" />
    <glyph glyph-name="W" unicode="W" horiz-adv-x="783" 
d="M34 630l5 7l11 7l17 9l13 9q8 -5 11.5 -10t5.5 -13l15 -60l4 -12q-11 -7 -19 -7l-9 1q3 -19 24 -19l10 1l4 -15l7 -21l8 -13l2 -12q11 -14 11 -21t-13 -11q5 -9 5 -15q0 -7 -5 -14l10 -8l14 -4l1 -16l16 -17l5 -17l5 -16l-6 -6q13 -9 18 -21q15 -33 28 -104
q4 -18 9.5 -28.5t12.5 -10.5q1 0 1 1h2l11 19l14 14l6 10q-8 8 -8 15q0 5 2 7l24 40l6 30l16 47l1 16l6 17l1 38l8 13l3 19l8 17l-1 20l8 36l8 53l10 9l7 12l-4 11l5 12q11 0 16 2t13 10l18 -4l8 -14l11 -10q5 -4 8 -38l1 -12l-13 -6q0 -17 4 -21.5t17 -4.5l7 -39l3 -9
l15 -31l1 -12v-4l-7 -6l11 -13q-2 -6 -4.5 -7.5t-8.5 -2.5q3 -8 6.5 -11t13.5 -5q8 -16 10 -28t3 -32h-7l5 -10l9 -12l3 -37l14 -45l8 -31q3 -5 6 -7t11 -4l3 -12l4 13l20 48l1 9l14 22l9 15l-9 11l3 8l9 7l21 86l9 14l8 51l11 43l2 7q5 2 7 4.5t4 10.5l4 10l-9 12l9 30
l3 19l-1 20l11 10l15 19l39 19l6 11h5q9 0 9 -7t-7 -20l-6 -30l-3 -21l-15 -52l-5 -13l-11 2l-8 -2l-2 -12l14 -5q-1 -13 -3 -17.5t-9 -9.5q0 -17 -3 -27.5t-11 -19.5l-15 -22l1 -15l-4 -16l-3 -16l-11 -24v-13q0 -7 -10 -30l-6 -15l-6 2q-2 -5 -3.5 -7t-6.5 -5l2 -16l6 -2
l-3 -14l-15 -38l-12 -22l-1 -23l-2 -13l7 -18l-6 -10l-14 -20l-2 -20l-4 -12l-2 -14l-12 -18l-5 -23q-3 -12 -11 -20t-17 -8l-12 4q-2 12 -3 13l-10 18l-8 44l-7 22l-7 1l1 23l10 3q-5 11 -9 14.5t-14 5.5l2 23l-2 14q5 2 9 7l-5 6l-3 1l-4 10l-13 53l-16 28l-11 54l-16 33
l-7 10q7 1 9.5 3t5.5 9q-6 6 -11 6q-2 0 -4.5 -0.5t-5.5 -0.5l-2 7l1 26l-7 18l-1 9q-4 7 -10 7q-4 0 -6 -4l-19 -69l-10 -10l-10 -16l-10 -25l1 -25q-1 -17 -18 -25l-1 -11l-6 -12v-28l-7 -10l-4 -11l3 -3l-3 -11l-18 -58l-6 -26l-4 -13q-2 -8 -2 -12t1 -7.5t5 -10.5
q-8 -3 -11 -5.5t-5 -10.5l3 -3l-6 -16l-5 -32q0 -3 -9 -10l-8 -6l-1 4q-9 7 -13 14.5t-11 27.5l-11 36l-12 54q-3 9 -6 15.5t-9 16.5l5 10l10 18q0 4 -9 11l-2 -5l-17 2l-4 13l-4 31l-4 9l8 25l-3 8l-16 1l-19 46l4 9l-1 7l-1 11l-14 -2l-4 15l-10 16l-17 44l-11 11l-10 36
l-6 9l4 14q0 7 -4 11l-14 13l-15 53l-23 33q0 1 -0.5 1.5t-0.5 1.5q0 5 3 9t13 15z" />
    <glyph glyph-name="X" unicode="X" horiz-adv-x="651" 
d="M7 8l67 59q18 15 23 25l6 13l39 41l4 12l50 75l18 25q8 5 10 7.5t2 7.5v3l7 9q23 26 23 43q1 1 -1 6q7 9 7 12q0 4 -8 12l-23 20l-15 15q-7 8 -10.5 12.5t-6.5 7t-5.5 4l-7.5 4.5l-2 14l-9 6l-11 12l-16 10l-17 33l-38 32l-34 42l-14 11l-7 6l4 14l14 14l6 12l31 17l11 7
q8 -5 16 -13t13 -17l1 -4l-6 -2l4 -12q6 -4 12 -3q23 -17 31 -28t11 -28h-8l7 -16h13l7 -11l18 -28l14 -13l13 -25q-12 -12 -12 -19l3 -8h8q6 0 16 -7l4 8l9 -9q11 -11 13.5 -15.5t3.5 -12.5q13 7 20.5 14t12.5 20l13 31l29 40l16 28l11 19l9 15l7 3q4 13 10.5 24.5
t15.5 23.5q4 5 6.5 6t9.5 2l13 9q-4 8 -4 12q0 7 6 7l13 2l42 16q12 0 13 -13l-10 -9l-25 -33l-15 -11l-13 -20l-9 -3l-13 -6q6 -11 6 -14q0 -5 -5 -9t-19 -11q-5 -23 -8 -27l-13 -17l-20 -27l-12 -12l-6 -9l-15 -1l7 -19l-22 -19l-2 -9q-3 -14 -4.5 -20t-5.5 -14l12 -13
l23 -15l20 -27l16 -13l5 -20l9 -12l11 -5l12 -14l14 -14l5 -17l16 -5l-6 -6l6 -13l15 -1l6 -11q7 -18 15 -23l34 -21l12 -7q0 -2 -0.5 -4t-0.5 -3q0 -7 1.5 -11t6.5 -11q8 2 10.5 4.5t1.5 11.5l47 -36l12 -2q11 -1 17 -2t9 -4t4.5 -8.5t3.5 -15.5q-11 -9 -14.5 -15.5
t-6.5 -20.5q-8 -2 -12 -4t-12 -7q-5 -10 -8 -11l-13 4l-10 1l-25 18l-18 12l-18 11v4h-4l-7 8l-11 17l-7 7q8 11 8 18q0 3 -2 7h-4q-4 0 -8 -1t-17 -6l-12 11q0 13 -3.5 17.5t-14.5 6.5l-27 38l6 2q-3 7 -5.5 9t-10.5 1l-21 23l-6 10l-26 31l-2 15l-8 8l-5 -10l-7 11l-21 23
q-2 2 -5 10l7 4q0 8 -1 10.5t-6 5.5q-8 -4 -10 -4q-1 0 -7 2l-7 -8l-14 -19l-25 -33l-24 -40l-9 -6l-8 -10q-1 -16 -14 -33.5t-33 -32.5q-4 -15 -8.5 -25t-16.5 -27l-7 -9q-8 5 -11 5q-6 0 -13 -9l8 -12l-26 -31l-46 -25q-8 4 -15 4q-1 0 -11 -2l-10 11v5z" />
    <glyph glyph-name="Y" unicode="Y" horiz-adv-x="626" 
d="M94 648l-7 -22l2 -8v-8l20 -23l2 -10l-1 -17l16 -13l-4 -15q-3 -8 -3 -13q0 -4 6 -10l20 3q21 0 30 -14l11 -22l10 -16l3 -10l-7 -5q7 -11 10.5 -14t8.5 -3q2 0 4 0.5t4 0.5q17 -24 29.5 -37t32.5 -28l-7 -4q4 -10 7 -13.5t11 -8.5l5 5l28 -28q3 -24 19 -24q5 0 13 5
l12 12l10 7l30 42l12 13l26 47l25 34l8 25l11 21l7 29l20 30l3 10l25 -3q-1 11 -4 14t-14 5l4 10q7 20 16 26l20 13q32 20 45 22l7 -2q-1 -25 -11 -37l-21 -29l-21 -40l-16 -11l-17 -44l-7 -7l-11 -16l-12 -8q-3 -3 -4.5 -5t-2.5 -7v-13l-13 -20l-13 -24l-8 -6l-20 -39
q-4 -9 -27 -25l-10 -7l7 -15l-7 -13l-18 -20l-10 -18l-8 -7l-1 -19q0 -14 -2.5 -20t-13.5 -15q2 -10 5 -13.5t11 -8.5l-3 -49l-6 2l-7 -5l3 -26l8 -1l2 -45l-10 -3v-8q14 -11 14 -19q0 -2 -3 -9l-10 -2l-10 2l-11 -3q-14 -5 -26 -8.5t-20 -3.5q-10 0 -19 12l2 24l6 24l3 19
l-2 45q0 3 2 6t5 8l3 8l-3 3l-12 1l2 12l8 11l2 11l-1 19l1 15h8q0 11 -2 15t-8 9l6 4l-5 11l-24 19l-22 28q-4 2 -7.5 3.5t-11.5 2.5q0 21 -6 27l-35 32l-1 28q-2 15 -14 15q-2 0 -12 -2q-1 13 -5 18t-18 13l-9 -2l-11 14l-42 44l-16 22l-9 10q14 2 14 10q0 5 -4 8.5
t-10 3.5q-2 0 -12 -2q-31 39 -31 62q0 8 4.5 18t9.5 12l30 14l24 13l6 1l7 -2l8 1z" />
    <glyph glyph-name="Z" unicode="Z" horiz-adv-x="665" 
d="M32 2l7 12l7 11l20 16q6 5 10.5 11t11.5 17l11 3q2 8 3 13.5t6 10.5l24 35q14 21 21 27t18 8l-4 9l12 22l11 17q1 3 9 12l7 -2l7 12l-6 4q3 8 5.5 10.5t7.5 8.5q11 11 19 23t20 32l10 -4l15 16l-6 23l24 36l6 3l4 -1l6 16l-6 5l10 12l48 74l7 6l3 13l8 7l20 31l8 8l-2 10
l12 19h-19l-45 -2l-19 2l-11 -5l-52 5l-23 -4l-53 3l-14 -2l-9 16l-27 -5l3 -8l-96 -6q-5 -8 -12 -8q-12 0 -12 13q0 9 7 14l25 20l24 23l20 -8q17 8 25 8h4l63 -9l68 -4l9 -4l22 7l22 -4q7 -12 12 -12l6 2q3 12 12 12h2l40 -3l51 4q9 0 16.5 -1.5t18.5 -5.5q12 5 18 6.5
t12 1.5q5 0 9.5 -2t11.5 -8l-25 -42l-5 -2l-7 4l-8 -6q-5 3 -7 3t-5 -3q-1 -9 0.5 -13t8.5 -12l-8 -9q-13 -18 -18 -22t-16 -4l-3 -3h-11l-2 -11q11 -4 11 -11v-3l-17 -23l-11 -18l-16 -16l-2 -16l-16 -18l-28 -44l-12 -5l-3 -32q-25 -26 -42 -59q-3 1 -9 1q-5 0 -12 -6
l2 -6q0 -4 -7 -11q-8 0 -12 -1t-10 -6l2 -12l7 -12q1 -1 1 -3q0 -10 -28 -48l-6 -9h-25q-2 -5 -3 -6.5t-6 -2.5v-12q13 -6 13 -15q0 -4 -4 -10.5t-17 -22.5l-8 -12q12 -9 20.5 -11.5t24.5 -2.5h9l34 1h12h11q23 0 33 -2.5t25 -10.5l20 12l35 -1l54 1l10 -1l4 -10l10 2l14 9
l30 -5l78 1l13 -3l8 8q10 -5 17 -5q5 0 10.5 2.5t20.5 13.5l8 6q11 -1 18 -7q-5 -18 -8 -24.5t-8 -8.5l-49 -28l-15 -10q-9 -6 -20 -6q-2 0 -3.5 0.5t-3.5 0.5l-36 12q-9 3 -17 3h-4l-23 -2l-44 7h-39l-18 1l-11 7q-12 -7 -18 -7q-3 0 -12 3q-10 -6 -17 -6l-43 1h-17
q-11 9 -17 9q-2 0 -4 -1l2 -9l-23 -2q-13 9 -16 9q-4 0 -9 -11q-18 0 -32 -0.5t-26 -1.5t-23 -2.5t-24 -4.5q-18 -3 -29 -3q-10 0 -20 6q-7 -2 -10.5 -2.5t-8.5 -0.5q-6 0 -9.5 1.5t-9.5 6.5z" />
    <glyph glyph-name="bracketleft" unicode="[" horiz-adv-x="435" 
d="M199 313q-5 11 -9 16t-13 12l-2 8l2 36l-4 62l3 24l3 10l-10 116l-5 11l-2 31l-5 11q-1 1 -1 5l1 11l4 6l26 -6l-8 6q-6 5 -6 11q0 5 1 8q-6 2 -7 2q-2 0 -10 -2q-2 23 -3.5 31t-5.5 10l-20 8l5 9l17 9l9 4q19 9 34 9q3 0 5 -1l72 -11l33 -2q3 -1 8 -2.5t11 -3.5l21 6
l35 6l26 9l9 -2q-2 -12 -5.5 -17t-16.5 -10q0 -12 -5 -15l-21 -11l-9 -4l-14 7l-24 -7l-69 5l-10 -16l5 -3v-8l2 -22l-4 -152l2 -14q0 -2 0.5 -4.5t0.5 -6.5l1 -30l-3 -25v-2l2 -26l-8 -26l4 -7l7 -10l-8 -21q9 -12 9 -20l-2 -16l4 -45v-1q0 -7 -10 -20q13 -18 13 -26
q0 -3 -2 -7l-14 -31l14 -22q9 -13 8 -18l-7 -160l6 -42q6 2 7 1l74 -22l22 3l12 -3l10 -2q12 22 28 22l18 -4l-5 -21q-5 -10 -10 -12q-8 -2 -8.5 -2t-1.5 -1l-10 -8q-11 -5 -13 -9l-4 -5l-18 2l-21 -10h-1l-1 10q0 2 -2 2l-2 -1l-25 -7l-28 6l-86 -3l-37 13l4 11l13 27l2 26
l5 24v37l3 14l-2 235l2 29l-2 11l-3 11z" />
    <glyph glyph-name="backslash" unicode="\" horiz-adv-x="529" 
d="M529 -121q-8 -9 -14.5 -11.5t-18.5 -2.5t-22.5 2t-26.5 7q-2 8 -4.5 11.5t-10.5 7.5l-1 11l-8 23l-3 21l-3 12l-4 5l-10 -2l-6 13l-9 15l-9 28l-28 45q-2 6 -2 10t4 12l-18 7l-36 68q2 4 4 6.5t3 4.5q4 13 -17 14l-5 10l6 10l-5 7l-10 8q-2 0 -6 -3l-9 14l-14 37l-19 31
l-7 12q-2 5 -1 11l7 3q-1 19 -8 19q-3 0 -13 -4l-6 15l5 11q-24 10 -25 16l-7 30l-47 77l-7 27l-69 132l-14 46l-20 34l-15 26l8 15l14 6l21 -3q29 -2 40 -7.5t15 -22.5q-10 -8 -11 -12q-2 -3 0 -9l9 5q6 -3 3 -11q-1 -1 -1 -2t-1 -2l9 -2l1 -10l6 -26l16 -34l7 -24l4 -13
l-2 -22l8 -15l6 2l5 -12l19 -35q6 -11 6 -20q1 -21 2.5 -26.5t6.5 -5.5q3 0 11 2l3 -10l11 -21l-5 -18q-1 -8 19 -9q3 -12 1 -16l-7 -12l9 -4l13 -7l9 -19l14 -22l10 -27l12 -18q-4 -4 -6 -8q-1 -3 1.5 -6t14.5 -14l13 -21l19 -40q-1 -15 1 -18t13 -5l5 -13l6 -13l42 -62
l-2 -16l10 -7l18 -36l32 -54l6 -22l4 -8h13l28 -36l8 -20z" />
    <glyph glyph-name="bracketright" unicode="]" horiz-adv-x="435" 
d="M248 324q5 -11 9 -16t13 -12l2 -8l-2 -36l4 -62l-3 -24l-3 -10l10 -116l5 -11l2 -31l5 -11q1 -1 1 -5l-1 -11l-4 -6l-26 6l8 -6q6 -5 6 -11q0 -5 -1 -8q6 -2 7 -2q2 0 10 2q2 -23 3.5 -31t5.5 -10l20 -8l-5 -9l-17 -9l-9 -4q-20 -9 -34 -9q-3 0 -5 1l-72 11l-33 2
q-3 1 -8 2.5t-11 3.5l-21 -6l-35 -6l-26 -9l-9 2q2 12 5.5 17t16.5 10q0 12 5 15l21 11l9 4l14 -7l24 7l69 -5l10 16l-5 3v8l-2 22l4 152l-2 14q0 2 -0.5 4.5t-0.5 6.5l-1 30l3 25v2l-2 26l8 26l-4 7l-7 10l8 21q-9 12 -9 20l2 16l-4 45v1q0 7 10 20q-13 18 -13 26q0 3 2 7
l14 31l-14 22q-9 12 -8 18l7 160l-6 42q-6 -2 -7 -1l-74 22l-22 -3l-12 3l-10 2q-12 -22 -28 -22l-18 4l5 21q5 10 10 12q8 2 8.5 2t1.5 1l10 8q10 5 13 9l4 5l18 -2l21 10h1l1 -10q0 -2 2 -2l2 1l25 7l28 -6l86 3l37 -13l-4 -11l-13 -27l-2 -26l-5 -24v-37l-3 -14l2 -235
l-2 -29l2 -11l3 -11z" />
    <glyph glyph-name="asciicircum" unicode="^" 
d="M85 306l7 7l13 47l18 34l20 17l3 26l9 20l9 28l5 -1q9 0 15 6t9 15t4 20.5t1 22.5q0 7 -2 9q13 3 18 10l5 34l18 11l13 30l12 11l6 20q0 2 2.5 6.5t7.5 4.5h7t13.5 -0.5t14 -1t7.5 -1.5l18 -15l21 -14l8 -14v-24l26 -20l7 -33l-6 -10l4 -8l23 -20l4 -33l18 -30l4 -28
l-9 -22l12 -5l18 3l20 -23l20 -39l6 -28l1 -30l-7 -8l-16 4l-2 -14l-11 -4q-14 0 -27 7t-16 17l-20 58l-4 35l-28 49l-6 37q0 5 -16 7l-7 16l-13 38l-17 14l2 18l-11 26l-1 1q-1 0 -1.5 0.5t-1.5 0.5l-12 -5l-18 -35l-20 -15l3 -15l-9 -40l-8 -26l-17 -10l-2 -17l-20 -21
l-8 -22l-16 -29l-5 -49l-20 -27l-2 -9l-21 -5q-3 0 -4 1l-10 11l-25 11q-7 4 -13 18z" />
    <glyph glyph-name="underscore" unicode="_" horiz-adv-x="500" 
d="M500 -133v-67h-500v67h500z" />
    <glyph glyph-name="grave" unicode="`" horiz-adv-x="523" 
d="M185 649q12 7 17 7l25 -4l32 -1q17 -1 24.5 -4.5t12.5 -13.5q-7 -5 -11 -10l4 -10l5 -19l22 -34l5 -16l-4 -4q2 -7 4.5 -8.5t9.5 -1.5l6 -7l-11 -17q-5 -1 -10 -1q-6 0 -18 5l-4 -2q-3 9 -3 10l-14 22q-3 6 -5.5 8.5t-10.5 7.5q-6 15 -14 22.5t-23 12.5l-7 12l-9 14
l-12 13z" />
    <glyph glyph-name="a" unicode="a" horiz-adv-x="536" 
d="M148 203q10 22 37 21l3 3h10q3 4 5.5 6.5t6.5 4t9.5 3t15.5 3.5l61 11l18 -2l23 5l41 4q9 2 15 7.5t6 12.5q0 2 -1 3l-5 22l4 32q-3 18 -25 21l-7 11q-12 19 -18.5 24t-24.5 8l-28 6l-27 1l-13 -2q-5 2 -7 4.5t-4 9.5l-13 -6l-15 -14l-48 -24q-15 -8 -20 -16l-7 -10
q-5 -8 -13 -8l-10 2l-14 7l-15 3q-9 3 -15.5 8.5t-6.5 10.5q0 3 1 3l8 6l16 12l17 3l26 13l32 11l9 2l21 11l17 -3l59 13l25 -1h19l20 -7l58 -11l9 -5v-7l-7 -4q3 -17 12 -17q1 0 1.5 0.5t1.5 0.5l14 6h2q4 0 6 -5l10 -18l10 -8v-11l-2 -25q0 -16 16 -28l6 -72l-13 -18
l15 -18l1 -6l-3 -46l4 -35v-8v-11l-7 -2q0 -8 0.5 -12t1.5 -8t3.5 -8.5t6.5 -12.5l7 -16l-5 -9l-8 -12l-14 -5l-20 -11l-19 -6q-19 -7 -21 -7q-4 0 -7 3.5t-3 6.5q0 5 5 22q2 5 4 17l-10 -6l-44 -15q-14 -6 -26 -6h-1h-19l-23 -11l-16 -2l-45 -9l-19 3l-13 -5l-9 -2l-15 1
l-32 7l-22 2q-22 3 -39 15.5t-24 31.5l-13 5l-3 12l-1 9l-7 23l18 36l6 16q2 5 4 7t14 12l38 31l16 6l27 11q0 -1 1 -1h4zM100 114l11 -44l-11 -28l8 -10l13 16q11 -10 19 -13.5t29 -8.5l10 -14l34 -3l9 9l10 -5l7 4l5 3q5 -2 9 -3t5 -1q15 0 38 14q2 1 4.5 2.5t6.5 3.5
q24 0 37 4t21 14l10 13l24 20l1 6l-1 6q8 3 9.5 6t2.5 13q-7 7 -9 11l2 20l-4 45l6 13l-16 9l-8 -2l-45 3l-21 -1l-16 11l-10 -6l-27 -1l-19 -7l-11 6l-14 -8l-73 -35l-16 -12l-13 -19l-17 -10q-4 -4 -4 -9l1 -2l4 -6z" />
    <glyph glyph-name="b" unicode="b" horiz-adv-x="603" 
d="M40 22l13 11q15 10 16 16l5 11l8 12l-1 55q3 17 20 17l3 15l-1 8l-19 8l-1 6l3 71l-2 27l5 8l8 -1l1 12l-13 10l-1 7l1 6l2 13l-7 42l1 35l-1 21q0 2 1 3l9 16q2 2 2 7t-2 9.5t-10 11.5v16l-1 86l-3 13l4 54l-4 28v20l14 21l-6 12q-6 10 -6 16l1 8q18 8 18 19
q0 13 -18 15l-9 23l7 52l-9 19q-5 7 -6 8.5t-2 6.5l13 10l20 15l25 7l18 9q4 3 11 3q8 0 14 -5t6 -11q0 -4 -2.5 -10.5t-6.5 -14.5l-5 -10q12 -13 12 -20v-2l-6 -22l1 -22l-7 -19l5 -60l-12 -20q-3 -6 -3 -11q0 -3 1 -4l16 -22l-7 -77l7 -42q0 -7 -3 -10.5t-12 -6.5l-12 -4
l1 -16q1 -11 4.5 -15.5t14.5 -10.5l1 -11l3 -34q0 -9 -3 -16l-14 -31q0 -2 5.5 -6.5t10.5 -6.5q6 -3 11 -3q7 0 12 3.5t13 12.5q9 -3 14 -3q13 0 34 9l45 15q7 -12 16 -12h7t9 2l2 10l12 -1l25 1q6 0 12 -7q25 -1 35.5 -2t23.5 -4q25 -5 34.5 -13t12.5 -25l15 -3q5 9 12 9
q4 0 5 -2l8 -11l15 -13l9 -21l16 -17l4 -8l7 -35l9 -19q2 -5 2 -8.5v-7.5q0 -16 -5 -30.5t-19 -34.5l-7 2q-9 -10 -9 -19q0 -8 3 -20l-3 -5l-2 -11l-11 -13l-20 -27l-24 -15l-52 -48l-23 -12l-42 -17l-38 -8l-43 -7h-1l-31 8h-21l-64 17l-40 3l-25 8l-45 -18l-6 -2l-6 1
l-1 11zM138 53q12 -12 19 -12l35 -2l16 -7h16l20 -7l14 -4l-1 -4l12 5h7l45 -2l36 10q39 6 58 27l22 24l15 15l18 35l12 23l5 33l4 12l-7 63l1 17q0 10 -4 12l-20 14l-10 18q-7 12 -26 22l-39 22l-24 13l-66 6l-39 7q-15 0 -25 -5l-47 -27l-33 -18q-5 -8 -5 -17l4 -42l3 -29
v-11l-1 -10l-12 -23l14 -43l-4 -24l3 -67v-4q-8 -5 -11 -9t-5 -11z" />
    <glyph glyph-name="c" unicode="c" horiz-adv-x="498" 
d="M441 431q-4 -15 -8.5 -20.5t-19.5 -11.5l-1 -11l-20 -12l-14 -7h-2l-13 2l-17 -2l-75 12q-4 1 -11 1t-10 -1l-41 -8h-13q-9 -2 -16.5 -7.5t-16.5 -18.5l-21 -7l-9 -20l-17 -3q3 -6 2 -7l-20 -39l-2 -17l1 -30q0 -22 3 -35.5t11 -28.5l-4 -11q-5 -8 -5 -11t3 -7
q6 -2 9.5 -2.5t6 -2.5t5.5 -6t8 -11l13 -18l2 -4t3 -7h11l6 -8l32 -23l14 -12l16 -5l14 -5l22 -1l56 -6q1 -1 2 -1q6 0 12.5 3t22.5 11l9 -3l34 23q14 2 25.5 10.5t34.5 31.5q3 4 6.5 6t5.5 2q10 0 10 -10q0 -3 -1 -5l-6 -25v-1q0 -2 1 -3l-21 -26l-12 -3l-19 -13l-8 -2
l-22 -11h-2l-31 1q-9 0 -23 -7l-25 -14l-39 -3l-39 3l-9 7l-29 4l-32 9l-45 10l-21 18l-19 20l6 17q-9 -4 -17 -4h-4l-9 10l-12 21l-7 9l-3 28l4 14l-4 8l-10 11l6 25l-2 45l17 29l21 43l27 23l49 47l14 10l19 14l9 3l20 15l63 20l15 4q1 0 1.5 -0.5t1.5 -0.5l25 -11l25 7
l47 -8l40 6q2 -1 6.5 -2.5t9.5 -3.5z" />
    <glyph glyph-name="d" unicode="d" horiz-adv-x="606" 
d="M32 203l6 12l31 71q2 5 7.5 10.5t11.5 5.5h1l16 -1l6 41l19 15l20 23l14 9l9 8q2 1 4.5 2t5.5 2q4 -1 6.5 -1h4.5q9 -1 12 -2.5t8 -8.5q5 8 9.5 11t15.5 6l-1 15l14 6q12 3 21.5 6t15.5 5l17 -1l23 8l11 -7l4 -2l6 -3l2 -5q6 -4 7 -4q4 0 11 14l26 -6q15 -4 23.5 -6
t13.5 -4.5t7.5 -5t5.5 -6.5l29 1l-4 10l-5 8l-3 35l-3 10l4 25l-4 68l1 7l16 6l-7 10l-2 13l-7 22q-4 9 -4 24v6l5 69l-4 31l3 13q6 2 7.5 3.5t2.5 6.5l-6 6q-7 1 -10.5 2t-8.5 5v6v6l-4 30l-2 33q-1 10 -11 17q4 17 16 20l30 6l20 13l22 5l11 3q6 -7 8 -12t2 -13l-1 -12
l-5 -26l1 -14l-2 -43v-36l-6 -21l1 -45q-2 -5 -4.5 -9t-7.5 -11l15 -41l-3 -11v-23l-4 -10l4 -33q0 -7 -4 -18h-11q-4 -16 -4 -22q0 -3 1 -4l17 -24l-1 -35l3 -41l-2 -17l-1 -7l1 -10l-7 -8l3 -46l-1 -33l4 -31v-21l3 -24v-38l7 -38l1 -31l6 -22l1 -20v-15q6 -5 9 -21.5
t3 -25.5l-1 -10l-10 -3l-33 -6l-36 -3q-3 22 -6 27t-7 7q-7 -6 -16.5 -9t-17.5 -8q-18 -9 -44.5 -15t-55 -9t-56 -4t-49.5 -1q-29 0 -42 5t-19 19q-6 -1 -8 -2t-6 -6l-15 5q-2 10 -4.5 13.5t-11.5 7.5l-6 -6q-8 2 -13.5 4t-11 6t-11.5 10.5t-15 16.5q2 5 2 12q0 12 -10 20
l-14 13l-2 10l-8 37v8q0 9 1 16.5t5 19.5zM131 106q11 -17 28.5 -32.5t32.5 -22.5l22 -10l7 -4l15 -2h12l28 -10h7h24l49 2q9 1 19.5 3.5t21 5.5t18.5 6t12 5l22 19l11 13l-5 13l3 13l1 14l-1 20l-2 22l1 3l1 16l-4 22q-1 1 -1 2q0 12 22 15l-5 31q-12 4 -12 12v2l4 21
l-3 38v10l-5 11l1 12q0 7 -6 7q-2 0 -3 2l-20 -4l-5 -1l-7 1l-91 22l-33 1h-10q-5 0 -6 -1l-17 -7h-22l-29 -19l-20 -3l-14 -10l-20 -18q-11 -11 -14 -21l-2 -12l-19 -20l-20 -30q-5 -11 -6.5 -15.5t-1.5 -11.5q0 -11 4 -19l3 -9l11 -40l11 -20l1 -11v-6z" />
    <glyph glyph-name="e" unicode="e" horiz-adv-x="531" 
d="M219 418l44 14l35 4l21 9l10 1q25 0 42 -27q6 1 8.5 2.5t5.5 7.5l13 -11l18 -10l41 -40q7 -11 12 -18t8.5 -15t7.5 -18t9 -26l4 -12l-5 -2l-19 4l-21 -7l-16 3l-18 -5l-34 4l-33 -2l-34 6l-56 -1l-27 1l-66 -9l-24 1l-33 -10l-12 -2l-2 -12q-1 -12 -3.5 -16t-10.5 -11
l1 -9q10 -8 13 -10.5t4 -4.5l13 -50l6 -12q-5 -5 -5 -9l1 -2l19 -6l4 -12q5 -17 13 -21l26 -11l9 -19q3 -2 7 -2.5t15 -2.5l7 -13l15 -2l42 -15l35 7l93 15l20 12l31 19l26 34q6 8 16 8q17 0 17 -15q0 -7 -2 -11l-10 -17l-23 -40l-21 -1l-13 -11q-4 -4 -15 -6l-88 -17
l-14 -5l-31 3l-45 -4l-51 3h-14q-10 8 -13 10l-48 17l-16 15l-32 22l-25 34l-10 8q4 8 5 12t1 9q0 4 -2 6l-13 21l-3 28l-1 22q-1 8 5 30q4 13 7.5 22.5t6.5 12.5l18 23l9 21l23 22l25 33l22 12l32 22l21 14l7 5zM232 321l29 -6h1l33 6l10 2l8 -11h11l43 9l18 -2q12 2 12 11
q0 5 -5 13t-13 20l-34 24l-11 12l-16 1l-37 3l-9 -2l-21 -12l-27 -6l-34 -13l-13 -5l-16 -23q-6 -5 -10 -8t-6 -5l-2 -6l60 -4l7 1l11 3z" />
    <glyph glyph-name="f" unicode="f" horiz-adv-x="393" 
d="M108 420l-1 6l5 32l-2 52q1 14 11 24l-16 23l1 11l-3 108q0 15 8 28l17 29q0 4 -11 12q3 18 11.5 37.5t21 37.5t27.5 33.5t31 24.5l61 37l13 9l17 2l32 8l16 -5l37 1q9 -1 16.5 -5t18.5 -15q4 4 7 4q2 0 7 -3l-5 -11l-15 -16l-11 -14l-13 -8l-13 -7l-42 21q-23 12 -37 12
q-5 0 -18 -3.5t-24 -8.5q-33 -13 -44 -47l-14 -39l-11 -23l-7 -32l-8 -11l3 -14l5 -3l-2 -103l-10 -12v-14l-1 -11l12 -29l-4 -20l4 -48v-2q0 -12 -16 -24l2 -10q17 -8 18 -12l3 -19q0 -7 12 -7l15 -1l53 -3l39 6l42 4l22 6l12 1h19l12 -20l-11 -7l-36 -23l-19 -16l-49 7
l-51 -5q-10 0 -19 3q-11 3 -18.5 5t-11.5 2q-7 0 -12.5 -7.5t-5.5 -16.5v-3l8 -73v-1q0 -5 -12 -11q-1 -4 -1.5 -5.5t-0.5 -3.5q0 -7 10 -19l3 -14l3 -57l4 -20l-6 -6q-5 0 -7 1q-5 -3 -6.5 -5.5t-2.5 -7.5h5l-1 -4l14 -18v-12l-2 -14l2 -12l3 -12l-9 -4v-14l-44 -19l-39 -5
l-6 5v5l5 11l4 34l8 21l3 22l-3 25q13 14 13 26l-1 7l-10 34v3l1 45l2 86l2 12q23 3 23 14q0 6 -5 6l-19 2l-16 7h-23l-16 2l-10 1q-9 0 -15 -3q-15 -5 -18 -5q-8 0 -8 9q0 4 2 6l10 14l18 23q7 6 19 6q8 0 23 -4z" />
    <glyph glyph-name="g" unicode="g" horiz-adv-x="540" 
d="M-12 -200l12 4l25 26l38 15l10 6q4 0 7 -3.5t3 -8.5q0 -4 -2 -5l-31 -29l-5 -11l-5 -13l-2 -8l2 -13q-12 -9 -12 -13q0 -2 7 -11l3 2l11 -6q6 -13 9 -16l43 -27l9 -13l17 -6q5 -2 11 -3t11 -1h3l22 2l32 -6l15 3l71 -1l24 6l62 14l42 16l20 1l10 8l6 9l15 9l26 18l10 4v9
q17 8 17 18v2l-4 16l13 51l1 11l-10 5l-3 10l-20 41l-2 13q-4 8 -39 20l-10 3l-23 6l-26 -1l-17 4l-41 -1l-24 11l-21 -10q-11 -7 -30 -7h-35h-17q-12 5 -16.5 7t-9.5 2l-4 -2l-19 -12l-4 -2q-8 0 -19 3.5t-34 12.5q-13 5 -19 8.5t-19 14.5l-4 11q-3 10 -5 19t-2 15
t2.5 12.5t7.5 10.5l29 26l10 9l15 8l16 9l18 2q7 2 12 5.5t12 12.5h-9l-13 -1l-17 -1q-10 0 -28 9l-10 5l-7 10l-3 11q-1 5 -8 9t-18 5l-7 13l-9 13q-3 3 -3 11v8l4 21l1 23l11 20l2 32q1 4 5.5 9t16.5 18l11 12q2 2 4 3t3 2l14 7l8 8q14 17 23 22.5t22 7.5l4 6l12 2l84 19
l87 -9l21 14q15 10 25 10q2 0 2.5 -0.5t2.5 -0.5l24 -4l49 1q6 -1 9.5 -3t8.5 -8q13 5 14 8l5 15q1 3 11 7t33 10l9 3l7 -9q-4 -17 -9.5 -24t-23.5 -15l-10 -5q-2 -11 -4.5 -14.5t-13.5 -11.5l-15 -11q-4 -2 -12 -2l-18 1l-21 1l-14 -1h-12l-1 -5q17 -10 23.5 -17t11.5 -21
l9 -6v-22h-6l-1 -6l-10 -4l7 -12q4 -7 4 -11q0 -7 -4 -11l-21 -26l-6 -9l-39 -34l-7 -12q-5 -6 -27 -18l-29 -16q-12 -6 -29 -10t-46 -7l-3 -6l1 -12q0 -4 -2 -7.5t-5 -3.5l-31 -5l-20 -11l-23 -6q-14 -5 -24.5 -18t-10.5 -25l1 -9l22 -19l10 4l42 -5l31 3l18 -9l8 -1h3
l14 12q10 7 25 7h58h6l12 -9l7 -4q7 0 13 14l17 -1q32 0 38 -4l16 -8l38 -12l15 -9l-1 -14q5 -2 6.5 -3.5t3.5 -6.5l12 1l11 1q11 0 16 -14l3 -15l16 -58l1 -6q0 -11 -6.5 -30t-17.5 -44l-3 -10q-9 -6 -12 -10t-12 -21l-12 -19l-7 -1l-12 -12l-18 -11q-4 -2 -13 -15l-97 -47
l-9 -1l-27 -11l-60 -7l-44 -13l-52 1l-11 -2l-11 6l-9 -2h-26l-20 -2l-35 17l-41 7l-38 28l-25 12q-8 8 -15.5 28t-7.5 35q0 6 2.5 13.5t9.5 20.5l5 11zM141 217q0 -12 6 -13l20 -9l26 -20q8 -5 20.5 -7t36.5 -2q23 0 37 6l37 16l21 4l14 13l23 17l8 24l5 9l-1 20
q2 40 -8 47l-26 24l-13 19l-38 19l-14 5l-13 2l-17 -8l-12 2l-14 2l-7 -1l-23 -10h-15l-15 -8l-9 -4l-24 -25q-11 -8 -14 -14.5t-5 -26.5l-4 -27l2 -11v-9q1 -7 4.5 -10.5t14.5 -10.5z" />
    <glyph glyph-name="h" unicode="h" horiz-adv-x="568" 
d="M53 893q2 5 4 8t9 7l39 20q13 7 20 9.5t13 2.5q15 0 17 -8l-4 -34l-1 -63q-2 -16 -9 -20l-11 -6q-7 -4 -7 -13q0 -4 0.5 -8t1.5 -9l6 -1q6 6 10 7.5t10 2.5v-9l-5 -91l1 -29l-12 -24v-11q16 -19 16 -27v-3l-7 -12v-1l5 -41l2 -6l-1 -6l-5 -15l5 -21l-2 -18l3 -12l-6 -81
l1 -7l5 -3l74 56l8 -4l31 12l19 4l23 3q14 -1 17 -20h12l10 7l11 11l22 -3l57 -4l28 -27l16 -10l8 -13l-12 -7q8 -5 12 -5l7 2q8 -10 11 -19.5t3 -23.5l-1 -32q-1 -10 -1.5 -15.5t-2 -9.5t-4 -7t-6.5 -7l8 -19l-13 -20l14 -14v-81l-9 -10l2 -15l6 -36l-1 -32v-11
q0 -13 -19 -15l-13 -1l-30 -16l-10 -6l-20 17l3 13l18 54l-7 40l11 44q2 7 2.5 14t0.5 24q-12 5 -12 15q0 11 6 31q4 12 4 26v4l-4 37l5 19l-5 9l-7 16q-3 9 -9 10l-18 6l-27 15l-18 -1l-30 4l-40 -1l-21 -1q-16 -3 -28 -9l-26 -15l-21 -8l-12 -11l-16 -18l-10 -13l7 -30
l-6 -75l1 -5l-7 2l-3 -4h-6l2 -10l14 -19q1 0 1 -1l4 -42l2 -23l2 -15v-6l-4 -9l2 -45l-7 -13l-5 1l-5 -1l-9 -5q-5 -2 -13 -1l-9 -8q-9 -9 -13.5 -11.5t-11.5 -4.5l-5 11l-3 2l1 19l6 22v20l11 18l2 11q-5 8 -8 12.5t-3 9.5l6 145l-2 45l20 35l-2 11l-7 -7q-8 8 -9.5 12.5
t-1.5 17.5v112l3 18h6l10 10q-5 3 -7 6t-1 11q-12 7 -14 13v38l-4 57l6 15l2 10l-11 14l1 11l2 13l4 11l3 11q-8 10 -10.5 14.5t-2.5 6.5l1 94l-11 46v10z" />
    <glyph glyph-name="i" unicode="i" horiz-adv-x="209" 
d="M53 388q4 10 10 16.5t19 13.5l47 27q7 -1 12 -4t12 -12q-6 -13 -8 -20.5t-3 -17.5l-3 -48l-9 -17q0 -1 -0.5 -1.5t-0.5 -2.5q0 -7 12 -14l-2 -15v-95l-2 -76l7 -32v-17l2 -33q-2 -5 -6.5 -9.5t-24.5 -19.5l-24 -19q-6 -6 -15 -6q-6 0 -11 3.5t-5 8.5t1.5 12.5t6.5 17.5
l4 14l-5 5l7 82l3 8l13 2v16q0 15 -2.5 22.5t-12.5 19.5l1 16v3l-1 8q0 11 1 16t5 13l-7 8l1 27q7 4 7 9l-1 8l-14 2v15l1 13v20q1 13 -2 19t-13 14zM158 711q11 0 17.5 -6.5t6.5 -16.5t-5 -14l-36 -26l-14 -14l-26 -18q-26 -19 -31 -19q-8 0 -8 10q0 11 6 17l50 48l27 36
q6 3 13 3z" />
    <glyph glyph-name="j" unicode="j" horiz-adv-x="208" 
d="M-110 -562l33 3l15 10l37 17l18 18q25 22 33 41l28 65l16 20l-4 25l10 65v41l15 26l1 12q-13 4 -13 19v8l4 44l-1 42l4 27l9 3l6 -2l4 15l-6 6q-6 -2 -7 -2q-3 0 -11 4l-1 79h17l3 10q0 12 -6.5 21.5t-17.5 13.5l2 83l9 -1q6 0 7.5 3.5t1.5 17.5l-4 5q-19 -2 -19 7l3 22
l2 11h5q4 13 4 24q0 25 -6 33l-11 16l-4 75l-15 17l11 19l13 5l54 35q4 3 9 3q11 0 12 -18l-3 -15l3 -23l-3 -52l1 -10l-12 -22l1 -16l-4 -17q19 -4 19 -15l-6 -36l3 -79l-4 -29l3 -23l-2 -34l5 -34l2 -14v-19l-1 -25v-16l1 -18v-6l-6 -15l-2 -13l1 -10l8 -31l-4 -60
q0 -15 -1.5 -25.5t-5.5 -23.5l-14 -4l-1 -5l8 -26l-12 -58l-2 -7q0 -4 -2.5 -11.5t-10.5 -24.5l-10 -24l-6 -13l-9 -2l-5 -11l-12 -17l-25 -39l-36 -37l-8 -12l-29 -13l-7 -9q-4 -5 -6 -7t-8 -4l-6 2q-5 0 -38 -11h-27l-34 -11q-14 -2 -24 -3t-16 -1q-10 0 -20 6.5t-21 17.5
q-20 18 -20 29q0 5 5 8.5t12 3.5l7 -1l61 -21h27l12 -9l12 -3zM39 616q6 9 10 14.5t8.5 10t9 8.5t12.5 9l3 10l14 16l22 25q5 6 13 6h7l4 -10l9 -10q6 -8 6 -13q0 -1 -0.5 -2t-0.5 -2q-3 -3 -2 -3l-66 -45l-31 -24l-8 -5z" />
    <glyph glyph-name="k" unicode="k" horiz-adv-x="548" 
d="M61 888q3 6 5 7.5t11 4.5q1 1 8.5 6.5t18.5 14.5l10 8q6 0 14 4l9 7l7 -4v-8h-3l-5 -26l3 -82l-2 -45q0 -10 1 -17.5t3 -19.5l-9 -8l-2 -43l4 -9l10 -1l1 -8l-1 -31l4 -21l-1 -9l2 -37l-2 -69v-46v-1l-5 -31v-6q0 -9 2 -12l11 -19q0 -1 0.5 -1.5t0.5 -1.5l-4 -29v-5
l4 -59v-12l-1 -23l-4 -33v-1q0 -6 5 -21l6 3l22 18l31 21l65 67l63 63l30 36q11 11 21.5 19t27.5 18l13 -10q13 -9 13 -15q0 -8 -4 -16t-17 -22l-10 -3q-10 -3 -12.5 -5.5t-7.5 -12.5q-11 0 -16 -1t-13 -5v-12q0 -13 -7 -19l-29 -22l-13 -11l-7 -1h-8q-3 -16 -7 -19l-21 -12
l-17 -17l-16 -12q-14 -9 -14 -20t19 -23q30 -18 43.5 -27.5t16.5 -15.5l15 -31q3 -5 8.5 -8.5t19.5 -8.5l13 8l59 -26q7 -4 7 -9l-1 -6l20 -12l8 7l22 -7l13 -6h14q5 0 13 -4q5 5 7.5 6t5.5 1q9 0 9 -7t-11 -27l-2 -4q-10 -20 -27 -22l-26 -3l-10 -6q-2 -1 -5 -1q-5 0 -7 1
l-20 7l-30 8l-25 11l-10 6l1 13q0 12 -18 12h-11l-3 -6l-11 6l-64 53l-15 5l-79 65q-4 2 -7 2q-8 0 -8 -10v-1l11 -131q0 -5 -6 -12t-13 -9l-33 -8l-13 -8l-11 -5q-7 8 -7 14v5l9 59l-5 98l10 1q5 5 6 8.5t-1 11.5q-15 7 -15 15q0 6 3 12t11 20q-1 5 -3.5 6t-9.5 3v14l-2 47
l-1 31l2 38q8 4 10 7.5t1 13.5l-12 2l-2 139q12 5 12 14v6t-2 10l-10 8v21l-7 53l5 49l-5 20l-4 3l-1 14l-7 58l1 55l-4 13l5 33z" />
    <glyph glyph-name="l" unicode="l" horiz-adv-x="220" 
d="M146 928l1 -21l4 -14l1 -8v-12l-3 -36v-3l1 -17q0 -9 -2 -13l-12 -25l-1 -10q10 -1 12 -3.5t3 -13.5v-11q1 -3 -3 -8t-9 -8v-12l-1 -10v-4l9 -14l-4 -93v-67l-13 -26l7 -37l-10 -24q2 -5 9 -11l8 -9l4 -158l-12 -14q1 -7 1 -12v-8q0 -8 -0.5 -14.5t-3.5 -17.5l4 -11h14
v-18l10 -78l-2 -26l1 -20q0 -7 -7 -12l3 -12l-11 -2l-32 -20l-13 -2l-15 -9q-2 0 -3.5 -0.5t-3.5 -0.5q-9 0 -9 6v12l-3 22l7 53l2 68q0 14 2 22t9 19l-6 15q-8 14 -8 18q0 8 12 28q5 7 5 16q0 7 -15 13l2 8l-4 2v7v8l8 34v84l10 39q0 8 -12 17v23l-2 88q-1 7 13 33l7 13
q-11 5 -14.5 7.5t-3.5 7.5q0 3 0.5 5.5t2.5 13.5l-10 9v19l-2 23v4l8 25l-8 35l2 17l-10 57v5v3l4 16l3 20l44 24l20 15l8 2z" />
    <glyph glyph-name="m" unicode="m" horiz-adv-x="708" 
d="M53 398q9 16 23.5 26.5t46.5 23.5q14 -13 17 -18.5t3 -17.5l-1 -18l-1 -20l18 4l19 20l14 5l20 16l54 18l8 4l11 4q5 -6 7 -9.5t1 -11.5l9 -3l8 3v12q13 9 18 9q1 0 7 -2l4 3q5 1 10 1q15 0 26 -12t15 -32q2 -8 3.5 -11t8.5 -6l8 7l16 16l19 10l26 16l12 3h1l21 -1l19 6
h29l17 2l17 -7l20 -5q29 -9 28 -32q-8 -6 -8 -12t8 -6q3 0 7 2l2 -11l2 -27l5 -12l1 -8l-2 -32l-1 -28v-11l-6 -9q-5 -8 -5 -11l6 -53l2 -16v-1l-1 -33l1 -1l2 -17q-2 -4 -11 -10v-17l9 3l2 -11v-34l7 -21l-13 -7l-25 -13l-26 -19q-3 -1 -7 -1t-14 2l-2 24l2 13l7 23l-5 48
l4 27l1 25l10 24v3q0 7 -9 13l-1 11l-2 50q0 6 1 8l12 35l-13 19l-7 45l-4 12l-9 4l-22 14q-4 2 -8.5 2.5t-13.5 0.5q-23 0 -40.5 -3.5t-38.5 -13.5q-34 -17 -34 -30v-35l-13 -9q0 -1 -0.5 -1.5t-0.5 -1.5q0 -10 13 -17l4 -112q-8 -4 -10 -4t-3.5 0.5l-4.5 1.5l1 -11l14 -28
l-3 -17l2 -10q4 -13 7 -35.5t3 -36.5q0 -2 -2 -4l-7 -4l-18 -13l-29 -12l-9 -4q-3 0 -12 7v6l4 50l-2 43q0 10 3 14.5t11 10.5l1 10l-8 16l-2 12l-8 14l2 14l1 40l16 20q1 2 1 6q0 13 -9 13q-4 0 -6 -1l-5 10v12l1 20q1 72 -32 72q-5 0 -16 -4l-10 15l-12 -3l-9 -7l-24 -3
l-24 -10l-19 -2l-11 -5l-6 -11q-13 -28 -17 -42t-4 -33v-8l2 -67l-1 -12l-13 -5l2 -10l11 -16l-1 -50l7 -88q0 -5 -14 -13l-32 -16q-5 -3 -13 -3q-6 0 -15 3v12v13l1 49l-3 20l8 14l3 13l-9 7l-1 12v7l2 7l9 13l4 10v11q-5 0 -8 1.5t-4.5 7.5t-2 17t-0.5 31l1 24v10l8 1
l1 22l-2 16l-8 18l-4 37l-4 19l-2 13l-4 -4z" />
    <glyph glyph-name="n" unicode="n" horiz-adv-x="549" 
d="M63 406l10 12l18 8l17 13q4 3 9 4.5t9 1.5q7 0 12.5 -3.5t6.5 -8.5l1 -46l2 -15l9 3q8 10 19 20.5t22 19t20.5 14t15.5 5.5t10 -10q8 2 10 3l13 8q14 8 24 8h3l40 -4l15 5l45 -6q12 -1 20 -4.5t16 -11.5l7 1q8 0 14.5 -4t11.5 -10l7 -12l10 -16q3 -4 4 -11t3 -25v-27
l2 -12l-12 -15l4 -12l6 -11v-20q0 -4 -1 -6l-7 -14q-2 -4 -2 -14l10 -13l-1 -14l-1 -34v-4l7 -19l1 -44l3 -53l-5 -14l-67 -32q-9 11 -11.5 15t-2.5 7v2l12 47l1 21l4 -1l8 10q-4 8 -7 10.5t-11 5.5l-2 8l8 91l-5 13l1 16v37l6 18l-9 9l1 29q-4 11 -7 16.5t-11 14.5v5
q0 6 -4 9l-12 1l-25 15l-40 -2l-46 3q-6 -2 -13 -12l-9 2l-38 -7l-14 -3l-17 -13l-22 -10q-16 -9 -18 -23l-1 -48l-6 -30l10 -29v-16l-1 -58l-9 -20l-1 -7v-3l9 -16l3 -53l4 -17q0 -4 -3.5 -8.5t-7.5 -5.5l-31 -8l-10 -2q-7 -13 -15 -13q-5 0 -10 5t-5 8l7 35l-1 41l5 17
l-4 27l2 30l1 63q0 13 17 14q-2 11 -5.5 13.5t-15.5 2.5l1 88l11 7l-6 10l-13 36l-9 11z" />
    <glyph glyph-name="o" unicode="o" horiz-adv-x="598" 
d="M27 180q0 21 5 41t17 48q12 26 17.5 36t10.5 13l20 13l11 19q6 11 14 14l46 24l26 21l31 12l55 19l45 4l36 1q17 0 23.5 -3.5t6.5 -13.5q9 -7 11 -7q7 0 16 14l12 -3l32 -11l13 -11l18 -11l18 -28q8 -9 29 -9q8 -10 13 -19t8.5 -20t5.5 -25t3 -34l2 -16l-11 2l2 -11
l-11 -8q2 -8 3.5 -10.5t9.5 -6.5l1 -10q0 -26 -11 -56t-30 -59q-11 -16 -21.5 -27t-18.5 -22l-15 -4l-92 -43l-51 -2l-37 -9l-44 1l-15 -4l-44 8l-18 1l-10 11l-27 4l-13 7q-26 20 -35.5 27t-11.5 11l-11 21l-15 12l-12 31l-4 12l5 4q0 7 2 9.5t9 4.5l-3 8l-16 10v20z
M106 185q-15 -12 -15 -17l2 -6q4 5 8 5t6 -3l11 -36l25 -41l-3 -25q4 -4 9 -4q6 0 12 6l10 -3l59 -36l60 -6l34 -5l39 7l25 6l32 32l23 7l11 12l26 54l13 11q7 7 7 12v2l-8 23l9 56l-18 56l-3 25l-5 9h-3q-7 0 -12 7l-24 30l-8 12l-41 19q-8 13 -11 16t-9 3t-20 -5
q-14 6 -20 6l-14 -2l-24 -1l-33 -12l-8 7l-6 -8l-33 -20l-61 -53l-12 -10q-2 -17 -6.5 -27t-15.5 -30l-7 -12v-4q0 -11 -3 -14t-14 -5q-1 -3 -1.5 -4t-0.5 -3v-2q0 -1 1 -1l15 -17z" />
    <glyph glyph-name="p" unicode="p" horiz-adv-x="614" 
d="M53 374q2 16 6 20l10 6l23 26l21 12l12 6q6 -1 10 -3t13 -10l-2 -9l-2 -15l1 -8l9 -1l17 9q25 15 40 20t33 5q8 0 12 -1.5t10 -7.5l9 6l5 6l12 3l20 4l55 -1l47 1q6 0 10 -3t12 -12q2 0 3.5 0.5t3.5 0.5q4 0 7 -1.5t10 -5.5l36 -18q10 -4 13 -9l8 -19q3 -4 9 -4q5 0 13 3
q9 -7 14 -12.5t11 -16.5q4 -7 8 -20t7.5 -26.5t5.5 -26t2 -18.5v-2l-3 -16l-1 -14l5 -21l-10 -26l-5 -12l-14 -18l-10 -19l-13 -13l-9 -12l-7 -2l-13 3l-5 -9q-12 -24 -19 -29.5t-24 -5.5h-1l-8 1q-2 -17 -14 -28t-39 -21l-27 -9l-22 -8l-44 -1l-12 -2l-12 -8q-6 3 -10 4.5
t-8 2t-10.5 1t-18.5 1.5l-12 1l2 12l-11 2l-10 -6l-8 -4h-14h-22l-9 3l-3 -12l2 -73l-7 -33l-1 -14h8l3 -90l-12 -2l-3 -8l2 -12l6 -26l-3 -11l7 5l5 -3l1 -33l3 -32l2 -22q0 -10 -15 -11l-3 -7l17 -4l-1 -10l5 -24l2 -16l-6 -9l-12 -10l-10 -16l-12 -4l-26 -12l-8 -1l-18 1
l-1 18l1 16l3 41l-1 41q1 8 3 11t8 8l-5 32q8 8 10.5 12t3.5 14q-8 3 -10.5 5.5t-4.5 9.5l4 18l-2 13l-1 52l-2 39l5 46l1 13q7 6 9 10.5t2 10.5q0 5 -1 10t-3 16l-11 3l-5 17v7l6 163l6 18l-2 18l-2 13l-9 3v13l-2 72v8l3 20l-5 41q0 17 -2.5 21t-14.5 11zM146 283l-2 -24
l2 -56q0 -3 -2.5 -9t-6.5 -13q7 -15 9 -22t2 -19l-2 -45l-1 -17l14 -7l25 -11l20 -15l6 8l13 -5l42 -3l36 -14l40 6l25 -1l19 8l20 9l24 18l19 12l18 22l21 15q18 12 20 24l2 19l12 24v2q0 1 1 1l-2 39l-1 11l6 5q-11 5 -15.5 9.5t-6.5 12.5l-8 23l-25 37l-2 20l-7 7l-26 -1
l-39 26l-28 3l-26 9l-71 -1h-11l-14 -2l-40 -11l-20 -4l-16 -7l-12 -3q-11 -4 -11 -29v-6q-8 -16 -11 -22.5t-3 -10.5q0 -3 1 -4l2 -4z" />
    <glyph glyph-name="q" unicode="q" horiz-adv-x="576" 
d="M28 206q8 23 17 40.5t20 37.5l16 1q2 16 8 30.5t18 24.5l35 30l31 27l12 5l17 14l38 8l31 18l22 -1l31 1l13 -8l46 -2l11 -2l14 -14q1 0 1.5 -0.5t1.5 -0.5q6 0 18 13l7 -1l64 21q0 1 2 1q4 0 6.5 -5t2.5 -13l-1 -21l-4 -46l-3 -15v-1l1 -15l-2 -18l-11 -2l-2 -5l5 -18
q6 -5 10.5 -14t3.5 -16v-19l-1 -81l-10 -6q-1 -2 -1 -4q0 -8 14 -19l-1 -13l7 -28l-9 -36v-3l5 -32l1 -16v-8l-3 -97v-34q-7 -1 -9 -3.5t-3 -10.5l-1 -11l9 -7l2 -10v-21l5 -17l-2 -54l8 -67l-4 -40l6 -26q1 -5 1.5 -9t0.5 -9q0 -16 -8 -30q-3 -5 -15 -10.5t-41 -15.5
l-13 -5l-18 4l1 11l1 20l17 44q0 1 0.5 2t0.5 2q0 7 -8 5l1 20q-1 26 3 32l7 11l5 8q-2 6 -4.5 8.5t-8.5 5.5l-1 10l2 35l1 11v12v14l5 1l-5 29q2 8 5.5 10.5t13.5 4.5l-3 13l-11 23q-2 3 -2 15v5l1 34v4v20l-1 8q0 9 2.5 12.5t11.5 6.5l-21 32q5 10 7 15t2 10t-8 9.5
t-19 4.5h-3l-42 -16l-23 -5l-10 -3l-14 3l-9 -2q-20 -21 -38 -21h-2l-80 4q-16 1 -25.5 2t-11.5 2l-42 21l-30 6q-5 3 -11 9t-16 20l-8 14v2l8 22l-3 5q-8 -5 -11 -5q-7 0 -12 11t-10 39l-3 12l24 13l-2 6q-22 3 -22 13zM107 218l-2 -9l-2 -16l1 -6l22 -70l1 -17
q2 -6 9 -9.5t22 -6.5l-1 -17q0 -11 7 -11l26 1q2 0 11 -3q10 -4 16.5 -8t14.5 -13q17 6 26.5 8.5t19.5 2.5q5 0 9.5 -1t9.5 -3l15 -6l61 18l45 10q7 4 10 9t5 16l21 1l1 7l-10 19l1 16l2 23l4 22l-10 85l2 45l-5 23l-3 31q-2 12 -8 16.5t-19 4.5l-20 4v-6q-14 -3 -21 -4
t-13 -1q-10 0 -16 2t-14 9l-4 2l-30 -4l-15 7l-7 1q-8 0 -18.5 -1t-21.5 -3q-12 -1 -17 -6l-23 -21l-31 -22l-19 -26l-21 -38q-2 -4 -3 -8l-3 -12h-4q-3 -11 -5 -16.5t-2 -8.5t1 -5z" />
    <glyph glyph-name="r" unicode="r" horiz-adv-x="386" 
d="M53 388q2 11 6 17.5t10 12.5l30 16l18 12q14 -4 19 -9.5t5 -17.5v-3v-13q0 -18 8 -18h2l25 13l24 9l42 23l14 6l11 -3l22 7q19 6 29 6l21 -2q9 -14 16 -14q1 0 1.5 0.5t1.5 0.5l11 6q4 2 6 2q12 0 23 -13q8 -10 8 -17q0 -2 -2 -4l-28 -22l-15 -16l-9 -3l-13 8l-9 9l-29 1
l-28 11l-11 3q-6 -11 -13 -13.5t-28 -2.5l-16 -7l-12 4l-10 -8l-39 -30q-5 -6 -7.5 -18.5t-3.5 -28.5l-1 -37l-11 -7q6 -10 8 -15.5t2 -16.5h7l1 -14l2 -63l1 -33l-2 -30q-15 -8 -15 -14q0 -1 4 -9l13 3l-1 -4l4 -20v-2q0 -8 -8 -15.5t-16 -8.5l-19 -2l-29 -15l-12 7l2 10
l7 28l-3 38l3 5h10v6l-1 9l-6 14l-1 20l-4 17v1v13l1 16q4 5 7 9t11 17l5 12l-1 5q-11 -1 -17.5 2t-5.5 8l2 37l-3 37q1 4 6 9v14l-6 6l-2 12l-1 26z" />
    <glyph glyph-name="s" unicode="s" horiz-adv-x="472" 
d="M86 109l9 -43l18 -11l28 -22l14 -4l26 -13h18l12 -2l24 7l40 4l20 10l19 7q9 5 18 17t16.5 27t12.5 31t5 30q0 10 -6 18l-19 27l-5 12l-12 6l-6 -8l-11 1l-26 4h-31h-8l-13 19q-11 -13 -18 -16.5t-23 -4.5l-17 -3l-10 5h-12l-13 10l-16 -3l-15 7l-21 7q-12 5 -21 19.5
t-9 30.5q0 23 16 49.5t47 50.5q19 15 41.5 27.5t44 22t41.5 15t34 5.5q5 0 14 -2.5t23 -7.5l14 -5q17 3 26 4.5t17 1.5q13 0 21.5 -4.5t8.5 -10.5t-14 -17t-35 -22l-15 -7l-13 1l-24 1l-19 5l-8 17h-7l-8 -9h-15h-14l-20 -3l-15 4l-8 -6l-31 -18q-33 -28 -33 -51
q0 -16 10 -21l32 -15l10 -5v-12l15 -8l16 15l8 -1l82 6l39 -9l18 3l23 -15l34 -19q5 -3 9 -10t9 -21l4 -13q9 -26 9 -51q0 -19 -7 -32.5t-17 -13.5q-2 0 -10 2l-6 -11l-9 -24l-22 -24l-10 -14l-14 -1l-45 -23l-21 -3l-36 -12l-28 5l-43 -10q-4 0 -13 2t-35 7q-14 3 -18 4.5
t-8 4.5l-19 12l-24 14q-14 10 -24 25.5t-10 27.5q0 8 16 21t37 23z" />
    <glyph glyph-name="t" unicode="t" horiz-adv-x="362" 
d="M105 432l-3 104l-12 28l-3 15q14 20 29 29t38 13q9 15 17 15q13 0 13 -44q0 -29 -3.5 -56t-8.5 -40q-2 -6 -5 -14t-9 -6v-23q7 0 9.5 -1t6.5 -6l-3 -14l2 -11l10 -1l49 -11q5 -2 8.5 -2h7.5q11 0 15 2l19 6l37 4l28 10h10h4h11l1 -3l-5 -14l-1 -10l-35 -26l-21 -19
l-12 -2l-18 2q-45 9 -47 9h-1l-33 -2l-19 3q-16 -2 -16 -14q0 -6 6 -7l-1 -63q-21 -6 -21 -18l1 -11l20 -4l2 -47l1 -10l-5 -15q-6 3 -10 3q-12 0 -12 -11q0 -5 8 -15q6 8 9 8q1 0 10 -7l1 -66l2 -10l11 -23q2 -5 1 -17q11 -7 18 -9t19 -2q15 0 31 5.5t25 13.5l48 44
q3 3 8 3q6 0 17 -6l-3 -11q-9 -40 -17 -43l-115 -42l-20 -10l-15 9l-10 2l-5 -13l-9 -1q-14 0 -34 14q-9 8 -15 14t-7 11l-3 14l-6 17l1 27v31l10 32l-3 12l-2 17v11l2 47l-1 13l-2 17q0 2 1 2l13 15q2 4 2 6q0 11 -17 11l-4 6q3 21 4 34.5t1 36.5q-11 2 -17.5 3.5
t-17.5 1.5q-17 0 -30.5 -2.5t-30.5 -7.5q-4 3 -4 7q0 8 4 11l19 16l3 11q4 9 10 9l57 2l13 2z" />
    <glyph glyph-name="u" unicode="u" horiz-adv-x="559" 
d="M149 419q-5 -14 -7.5 -25.5t-2.5 -25.5l3 -28l-1 -12l-8 -24q-1 -15 -1.5 -19.5t-0.5 -7.5q0 -8 3 -15l8 -14l-11 -37l4 -12l-4 -21l-4 -28q0 -4 1 -6l7 -12l3 -52q3 -14 13 -21t39 -14l36 -10q10 -2 33 -2q16 0 24 3l28 11l30 -8q7 2 10 16l16 9l22 30l18 15q7 9 9 27
l4 50l4 11l-11 11l1 18l2 77l-3 26l-5 30q0 7 9 16l-2 9l-8 1l-2 15v4l4 15v10l8 -2l54 19q1 0 1 0.5t1 0.5q5 0 9 -9.5t4 -23.5l-4 -99l-7 -76l-13 5q-6 -14 -6 -19l3 -10q6 2 9 2q4 0 7 -3t3 -6l-5 -92l10 -17l5 -47q3 -5 6.5 -8.5t10.5 -13.5q-2 -8 -5 -11.5t-10 -6.5
l-56 -24q-15 8 -15 28l1 28l-9 2l-32 -15l-45 -22l-18 -9l-59 -11l-19 -6h-5q-5 0 -7 1l-18 7l-22 -6l-20 17l-39 -6q-7 0 -17 6.5t-19 16.5q-22 24 -22 50q0 7 10 16l-16 6l-1 19l-1 26q0 12 4 20l9 17l-9 27l1 29l-1 33q1 5 3 11t7 23v7l-9 -4l-6 6v10l1 59q0 13 -3 21
l-4 6q0 1 -0.5 1.5t-0.5 1.5q0 8 12 15l6 3l36 15q11 5 15 6t9 1t13 -14z" />
    <glyph glyph-name="v" unicode="v" horiz-adv-x="442" 
d="M7 402q7 16 14 19l29 13l12 12q1 1 4 1l12 -2l11 -3l3 -10l13 -30l10 -54l18 -33l8 -23l10 -24l2 -19l11 -11l7 -28l25 -45l-4 -17l9 -7l12 -9l24 -49l13 -6q5 0 5 3l13 28l19 35l22 53l9 16q16 2 16 8v1l-3 32l2 10l23 54l-1 36l16 37l7 29q5 11 19 19t30 8l16 -2
l-4 -13l-25 -53l-10 -30l-14 -44l-6 -18l-15 -34l-7 -32l-21 -33l-59 -131l-16 -21l7 -9l-12 -9l-26 -14l-19 -17q-5 -3 -8 -3t-7 4q-3 6 -3 8l-6 22l-12 13l-14 33l-28 52l-2 27l-1 11q-6 7 -20 10q10 10 10 14q0 11 -7 19t-18 8l-6 -1l-9 31l-9 23l-1 28l-21 19l-40 90z
" />
    <glyph glyph-name="w" unicode="w" horiz-adv-x="641" 
d="M0 395q6 14 10.5 20t10.5 8l20 7l21 16q2 0 3 0.5t3 0.5q6 0 11.5 -4.5t7.5 -10.5l20 -74l4 -12q-2 -5 -10 -11q7 -22 15 -22h8l10 2q14 -20 14 -25v-2l-3 -22l10 -32l5 -19l13 -18l26 -84l11 -13l6 -9h9l4 9q8 12 11.5 23.5t4.5 15.5l2 29l13 28l6 26q2 8 5.5 16
t11.5 28q0 18 1 29.5t4 19t8 11.5t13 8l-5 11l-11 14l2 31l-4 15l-1 16l12 6l11 7q9 7 36 10l9 1l9 -7l12 -8l6 -33l9 -41l-7 -19q0 -13 19 -22l12 -34l3 -10l9 -31l45 -124q5 -11 9 -15t13 -6l14 22q-2 5 -3.5 12t-1.5 9q0 4 2 8l34 87l1 22l14 45l2 34l6 32q2 20 3 30.5
t4 16.5t8 9.5t16 10.5q19 12 25 12q2 0 5.5 -1t8.5 -3q-2 -25 -3 -35.5t-3 -18.5l-11 -32l-3 -14l-10 -27l-3 -17q-1 -5 -13 -15l-1 -10l1 -14l-52 -167l-5 -50l-38 -30l-12 -16l-10 -7l-8 7l-8 10l-12 7l-3 9l-6 21l-11 13l9 6l-1 9l-9 10l-14 8q-7 4 -12 17l-12 50l-18 34
q1 7 7 7q5 0 8 -2q1 13 -2 19t-11 11l-15 8q-2 2 -6 11t-9 33l-4 9h-5l-5 -11l-35 -120l-25 -71l-6 -29l-6 -17l-3 -17l-23 -16l-8 -8q-11 -2 -17 -3.5t-17 -9.5l-5 12l-15 27l-8 19l-20 69l-28 50l3 39l-3 9q-19 0 -23 12l-8 20l-10 17l-11 35l-14 15l-36 76z" />
    <glyph glyph-name="x" unicode="x" horiz-adv-x="489" 
d="M189 218l-25 26l-7 25l-19 6l-24 25l-24 19l-4 23q-3 10 -11 10q-4 0 -10 -2l-8 6q-21 16 -30 25t-14 20l11 11q8 8 14 13t12 8t13 4.5t18 2.5l4 4h5l7 -9l19 -22l22 -31q10 -9 10 -15v-4q9 -13 13.5 -16t14.5 -3l18 -22q28 -26 28 -34l-1 -15l-1 -1q0 -5 7.5 -11.5
t12.5 -6.5q10 0 22 18l10 14q14 1 19.5 5t10.5 18l-3 9l8 7q27 23 28 28l4 21l15 19l22 31l14 9q7 5 14.5 8.5t12.5 3.5q11 0 11 -13q0 -5 -2 -9l-25 -34l-17 -26l-24 -26l-46 -53l-43 -46l-5 -15q12 -1 17 -3.5t12 -12.5l11 -2l10 -10l34 -37q10 -10 14.5 -13.5t11.5 -8.5
q17 -12 17 -19q0 -3 -4 -7l3 -4q8 1 11 -1t8 -8q11 0 15.5 -2t13.5 -13q7 -8 19 -17q13 -9 21 -17.5t8 -13.5q0 -2 -2.5 -5t-10.5 -11l-9 -9q-10 -11 -23.5 -18t-21.5 -7q-2 0 -5.5 2.5t-14.5 15.5l-54 60q-2 2 -6 10.5t-13 28.5h-14l-19 17q-9 10 -14 15.5t-8 8.5t-6 4.5
t-8 4.5l-10 6q-3 12 -6 18t-11 17l-14 -8l-7 -19l-19 -16l-18 -24q-5 -7 -10.5 -12.5t-12.5 -9.5l-15 -9l-11 -13l-35 -57q-5 -8 -12 -13.5t-20 -10.5l-5 -18h-13q-27 0 -27 20q0 10 10 20l65 62l13 10l29 39l50 52l18 19z" />
    <glyph glyph-name="y" unicode="y" horiz-adv-x="540" 
d="M2 -288l5 -14l19 -26l19 -30q4 -4 8 -7t7 -3h1l7 1l41 -17l34 -2q6 -5 13 -5q4 0 13 6l11 -1q22 0 59 17q33 16 41 25l37 38l23 14q13 10 21 36l12 40l18 28l-3 21l9 39l1 40q0 20 9 41l8 27l-6 23l-5 68l-1 11v5l8 26l-5 7l-15 -7l-17 -10l-14 -15l-47 -30l-24 -23
l-37 -27q-8 -5 -15 -9t-9 -5l-32 -5l-18 -7q-11 -3 -16 -3q-10 0 -23.5 3.5t-27 8.5t-25.5 12t-18 13q-9 11 -14 22.5t-5 26.5l1 10q10 7 10 13q0 1 -0.5 1.5t-0.5 1.5l-10 14l-1 14l3 13l19 44l-4 17v6q0 12 4 24l9 36q3 12 3.5 15.5t1.5 8.5l1 38l9 38q0 7 -7 17l-14 2
l-1 8l18 21l11 4l17 5l49 28h3q7 0 11.5 -6t4.5 -15v-3l-15 -37l-7 -37l-12 -56l-3 -33q-3 -8 -8 -9l-15 -4q-8 -3 -8 -11q0 -12 20 -12l-14 -101l-4 -29l3 -8l7 -9l14 -23l28 -11l13 -15l7 -3h4l16 11l47 16l20 14l34 24l32 31l21 13l9 5l18 47l3 2l2 9l10 12l-4 27l4 7
l-2 21l3 11l-8 43l-4 59l-14 29q-1 2 -1 6v8l21 7l15 14l29 4l11 3q14 -10 14 -17v-2l-3 -18l2 -35l-4 -14v-13l-6 -22l1 -7q8 -20 11.5 -27.5t3.5 -12.5v-13l2 -31l-7 -17q-2 -6 -2 -9q0 -13 16 -28l-1 -12l1 -64l-17 -46v-2l2 -7l10 -12l-4 -26l2 -38l-5 -12l1 -52l-7 -17
l-5 -24l-8 -16l1 -25l-17 -42l-4 -11l-14 -9l-37 -47l-22 -33q-13 -19 -25 -25l-13 -7l-12 -13l-15 -9l-9 -8l-21 -6q-2 0 -10 -4t-21 -10l-31 -11l-44 -13l-46 5l-24 3q-17 1 -30 8l-33 21l-17 4l-13 18l-26 16q-4 3 -6.5 11t-2.5 16q0 20 14 39q5 6 19 7z" />
    <glyph glyph-name="z" unicode="z" horiz-adv-x="444" 
d="M119 152q8 -2 10 -2q5 0 14 7q4 5 7 9t3 6q0 3 -5 10l66 88q18 0 21 10l6 23l25 31l22 38l8 11l-28 10l-78 -2l-60 6l-31 -2h-4h-8h-8l-12 -1l-23 -6q-7 0 -7 10q0 2 1.5 5.5t3.5 4.5l19 13q6 5 11 10.5t12 16.5q1 0 1.5 0.5t1.5 0.5h1l32 -6l9 6q17 -14 26 -14q4 0 6 1
l14 3l13 -2l19 1l48 -12l52 7l20 -2l19 3l21 2l20 4q11 -1 17 -21l-7 -8l-23 -28l-14 -20q-4 -8 -7.5 -10t-11.5 -2l-9 1q0 -7 -0.5 -11t-3 -8t-8 -10t-15.5 -17l-12 -16q-8 -2 -15 -8v-8q0 -6 -3 -9l-19 -20l-18 -25q-19 -19 -19 -24q0 -3 1 -5q-5 -8 -7.5 -10.5l-3.5 -3.5
l-37 -51l-27 -10q-5 -5 -5 -13q0 -5 3 -15l-20 -29l-6 -12h29l30 1q8 0 22 -8q13 8 16 8l53 -1l71 6l37 -8l12 -2l8 2v11l9 3q24 8 35 8q9 0 9 -9q0 -4 -4 -12l-9 -12l-7 -13h-6q-8 -15 -15 -21t-19 -6l-9 1l-35 7l-53 -2l-40 14l-48 -8l-32 3l-20 -6q-11 -3 -25 -3h-9
l-36 1l-16 -1l-39 -3q-16 0 -16 15q0 6 2 8l28 30l39 54l30 28z" />
    <glyph glyph-name="braceleft" unicode="{" horiz-adv-x="407" 
d="M371 -181q-75 5 -115.5 25t-59.5 55.5t-22.5 85t-3.5 113.5q0 38 -6.5 64.5t-22 44t-41 27t-63.5 13.5v48q8 0 19 2t23 5.5t23 8t18 8.5q26 15 36.5 39.5t13.5 54.5t1.5 63.5t0 66.5t9.5 64t29 55.5t59.5 40.5t101.5 20v-48q-48 -4 -74 -22t-38 -45t-13.5 -61t-1 -69
t-1 -69.5t-13.5 -62.5t-39 -48t-76 -27q49 -6 76 -26.5t39 -49t14 -63t1.5 -70t1 -69.5t13 -61t37.5 -44.5t74 -20.5v-48z" />
    <glyph glyph-name="bar" unicode="|" horiz-adv-x="222" 
d="M73 -214v1000h77v-1000h-77z" />
    <glyph glyph-name="braceright" unicode="}" horiz-adv-x="407" 
d="M371 247q-37 -5 -62.5 -14.5t-41.5 -27t-23 -44t-7 -63.5q0 -64 -3 -114t-22 -85t-59.5 -55t-115.5 -25v48q48 3 74 20.5t37.5 44t13 59.5t0.5 68.5t1 70t14 63.5t39 49.5t77 28.5q-50 7 -76.5 27.5t-38.5 49t-14 63t-1.5 69.5t-1 68.5t-13 60t-37.5 44.5t-74 22v48
q63 -4 102 -19t61 -43.5t29.5 -71.5t7.5 -101v-53t5 -53q4 -23 17 -39t31 -25.5t39 -15t42 -7.5v-48z" />
    <glyph glyph-name="asciitilde" unicode="~" 
d="M550 305q-7 -13 -15.5 -29t-25.5 -18l-4 -5v-6l-24 -23l-15 -17l-19 1l-3 -7l-24 -9l-22 -12l-26 -1l-24 9l-9 -1l-6 1l-12 7l-8 -1q-12 0 -23 23h-2l-11 -6l-14 11l2 5q-7 5 -12 13l-29 23l4 10l-7 10l-11 -7l-19 11h-10l-17 -5l-7 -2q-11 -14 -15.5 -18t-9.5 -5l-14 -3
l-35 -37q-2 -3 -5.5 -7.5t-10.5 -6.5l-18 9l9 16q5 8 10.5 11.5t16.5 5.5l-1 4l6 18l18 10l25 24l16 1l1 7l29 13l18 1l34 12l8 -4l52 -9l10 -5l13 -25l8 -9l3 1v-1l12 3l9 -2l2 -7q5 -1 8 -7t11 -8l9 -2l6 -13l32 -17l10 -1l17 5l7 10l16 -2l7 9l12 11l5 10l13 8l9 20
l11 16l6 10l17 -5z" />
    <glyph glyph-name="uni00A0" unicode="&#xa0;" horiz-adv-x="227" 
 />
    <glyph glyph-name="exclamdown" unicode="&#xa1;" horiz-adv-x="261" 
d="M195 665q-1 -9 -7 -12l-31 -19l-17 -16q-2 -1 -4.5 -2t-6.5 -2l-13 12l-35 25q-7 5 -9.5 9.5t-4.5 15.5l4 7l8 15l30 21l8 10l15 -7l13 -17l19 -17l10 -17q3 -1 11 -3zM101 1q-10 6 -12 11l3 14l2 23l5 11l-5 28l8 2l-3 24l-4 5v11l-2 14l3 24l-2 12l8 25l-1 6l-3 3l1 11
l4 68l4 17l-1 14l-9 17l1 18l1 23q1 2 8 9l-13 29l-3 27l-2 10l7 7l10 23q3 6 20 17l9 -5l24 2l8 -5q9 -4 9 -12l-1 -4l-19 -29l-5 -49l-3 -19h-11q-4 -7 -4 -12q0 -6 5 -13l13 3l3 -42l-11 -32l4 -13l4 -8l2 -58l1 -13l5 -1v-10l-15 1l-4 -5q4 -6 7.5 -8t11.5 -4v-5l-1 -31
l5 -28l-2 -12q13 -9 18 -16.5t5 -17.5q0 -9 -6.5 -18t-16 -16.5t-22 -12t-24.5 -4.5l-9 1z" />
    <glyph glyph-name="cent" unicode="&#xa2;" horiz-adv-x="470" 
d="M53 280q9 18 9 26l-1 29l9 17l22 42l20 18l44 41l37 23l8 7l20 6l16 9l-8 26l4 21l-4 9l1 8l1 10l11 6l22 15l5 2l6 -7l-1 -23l1 -41l-5 -20l20 -10l21 7l19 -4l13 -2l6 -1l6 1l32 4q0 -1 1 -1t1 -0.5t1 -0.5q4 -1 4 -7t-7 -16q-11 -2 -14 -5.5t-3 -12.5l-11 -5l-15 -10
l-15 1l-39 1l-16 6l1 -26l-2 -47v-3l1 -19q0 -4 -1 -5l-4 -6l-4 -11l5 -15l-5 -13v-9l4 -1l6 -8l-2 -29l2 -19v-17v-27q-4 -5 -5.5 -7.5t-1.5 -7.5l1 -11l11 -1l13 -1h3l28 10h9l25 15l20 10l30 26l12 7q5 -4 6 -6t3 -7q-5 -13 -5 -21v-5l-17 -20l-11 -5l-16 -11l-30 -11
l-19 1l-26 -7l-26 -10q-4 0 -7 1l-2 -2l2 -11l3 -36l2 -9l-5 -20v-6l-40 -17l-5 6l4 97l-5 -1l-7 6l-27 3l-25 6l-32 7q-5 2 -11 7t-14 13l-10 13l5 10l-15 -1l-9 8l-8 16l-6 8l-1 10l-2 10l2 15q0 6 -13 15zM124 254q12 -4 17.5 -9.5t13.5 -21.5l5 -9h8l7 -8l25 -18l10 -8
l11 -4l9 -4l10 26q-10 5 -12 13l2 11q3 14 3 17v8v21l-1 19l5 14l2 11l-6 8v13l-2 52l1 4l6 11l5 11l-11 5l2 15q-7 9 -7 13q0 2 2 5l-11 -2l-25 -4l-10 -6l-16 -15l-14 -4q-3 -11 -6.5 -14t-13.5 -5l-3 -3l3 -10q-12 -13 -15.5 -22t-3.5 -26l1 -20l1 -9l2 -11l8 -20l-6 -15
z" />
    <glyph glyph-name="sterling" unicode="&#xa3;" horiz-adv-x="732" 
d="M598 -4l-50 -5l-19 5l-16 -3l-30 4l-32 4l-29 6l-9 -3l-13 2l-10 2l-105 -3q-28 11 -34 11q-8 0 -17 -15l-9 -3l-50 5l-25 -8l-27 -2h-15l-26 4l-2 12l9 4l26 21l18 6l13 9l24 12l10 22l10 17l14 37l18 4l2 6l4 3l-3 7l8 7l-22 6v21l5 34v42v12h-13l-9 9l-45 2l-40 5h-20
l-31 9l-11 1l3 9l9 5l31 19l12 4l13 10h2l38 -11l25 -7l7 -1l6 5q-16 14 -26 37t-10 47l-6 2l-4 23l14 17l-10 -3l-3 5l19 43l-6 7l4 11q6 17 11.5 22.5t13.5 5.5q4 0 15 -3l2 19l-6 2l6 7l9 6l49 34l19 6l30 14l38 6l14 5l21 4l8 -2l12 -7l24 -11l9 -10l-6 -11l-19 -14
l-8 -9l-12 -1l-21 -5l-10 -1l-11 11l-28 2l-14 3l-6 1q-15 0 -25 -10l-10 -10l-27 -28l-9 -15l-5 -36l-3 -23l7 -31l-2 -23l27 -30l22 -59q8 -8 30 -14t48 -7q2 -8 4 -11t10 -7l1 5q8 2 10 3.5t2 8.5h10l31 5l46 2l43 23q14 0 14 -9t-12 -17q0 -6 -1.5 -10.5t-7 -8.5
t-16.5 -9.5t-30 -14.5l-10 -4l-11 1l-31 3h-2l-13 -3l-38 6h-18l-38 7l-10 -3v-23l-6 -12l1 -11q8 -8 8 -15q0 -5 -1 -9.5t-4 -15.5l-15 -6l-4 -13l8 -4l1 -10q0 -11 -11.5 -29.5t-31.5 -41.5v-18l36 -9q6 -9 10 -11.5t14 -4.5l4 4l11 -1l67 -6h10l8 -2v-3l12 -2l26 -4h6
l14 3l11 1l57 -3l90 4l26 -3q6 0 12 11q17 1 27 3t30 11l22 10l2 -15l1 -13q0 -10 -14 -21q-16 -13 -24 -13q-5 1 -9.5 1t-8.5 1q-4 0 -8 1l-14 -5q-6 -16 -18 -16z" />
    <glyph glyph-name="currency" unicode="&#xa4;" 
d="M490 121l-65 64q-29 -19 -59 -30t-65 -11q-34 0 -66 10.5t-59 30.5l-65 -64l-46 46l64 64q-20 30 -30.5 59.5t-10.5 66.5q0 36 10 66t31 59l-65 65l46 46l65 -65q26 20 59 30.5t67 10.5q37 0 65.5 -10.5t59.5 -30.5l64 65l46 -46l-64 -65q41 -56 41 -126q0 -35 -11 -65.5
t-30 -58.5l64 -65zM443 356q0 29 -11 55t-30.5 45.5t-45.5 31t-55 11.5q-30 0 -56 -11t-45.5 -30.5t-30.5 -45.5t-11 -56q0 -29 11 -55t30.5 -45.5t45.5 -30.5t55 -11t55 11t45.5 30.5t31 45t11.5 55.5z" />
    <glyph glyph-name="yen" unicode="&#xa5;" horiz-adv-x="659" 
d="M59 635l7 4q15 8 23.5 12t14.5 4l9 -1l34 -3l1 -8l-6 -14l3 -17l23 -33l-4 -7l-14 -5l16 -14q-7 -11 -7 -19q0 -5 6 -15l18 2q14 0 21.5 -6.5t17.5 -26.5l13 -24l-8 -5l15 -15q8 0 11 -1.5t8 -8.5l8 -9l-7 -10l33 -29l1 -4l-6 -2l16 -20l5 4l26 -26q5 -22 19 -22
q15 0 30 21l26 35l15 17l25 46l23 34l24 69l15 25l6 12l22 -3l2 5q-2 7 -17 13q6 17 9.5 23.5t8.5 9.5l36 23q18 10 24 10l7 -2q-2 -14 -4 -21.5t-7 -13.5l-18 -26l-19 -37l-16 -11l-6 -22l-10 -18l-17 -24l-10 -6q-3 -2 -5.5 -5t-1.5 -6v-15l-32 -47l-19 -37l-8 -9h25
l59 -2l40 -1l43 1l-33 -54l-14 -1l-16 -3l-28 12l-16 4l-7 -8l-22 1h-30l-20 2q-2 0 -3.5 0.5t-2.5 0.5q-4 0 -8 -4l-16 -24l-10 -12l-1 -17l-2 -13h7l37 -4l24 -3l62 -3l63 5q0 -23 -3.5 -35.5t-14.5 -24.5q-10 -1 -13.5 -3t-7.5 -10l-9 6l-21 -5q-2 0 -3.5 -0.5t-3.5 -0.5
q-4 0 -7 3l-15 13l-16 6q-8 -13 -17 -13q-4 0 -12 2l-28 11l-7 -3l-10 -3l-1 -24q-4 2 -6 2q-7 0 -7 -6v-2l2 -7l1 -10q0 -3 8 -5l2 -42h-6l-4 -4v-6l10 -4l4 -74l-11 -2l-16 1l-43 -12h-6h-11l-5 11l1 7l4 26l4 125l3 18l-14 4l1 8h-12l-40 -5l-23 -2l-7 1l-64 6l-39 -6
l-16 1q7 11 9 17.5t2 19.5l31 25l5 -9l3 8l10 3l21 1l9 2l17 -5l6 -1l7 1q-2 -18 16 -18q7 0 14 10l14 2l39 8l16 -4q0 9 -1.5 12.5t-9.5 7.5l7 6q-2 8 -4.5 10.5t-14.5 10.5l-14 12l2 6l-7 12l-13 2l-86 -7l-64 7q-10 0 -18 -1.5t-19 -5.5l-2 10q0 5 2.5 10t10.5 16l-8 3
l10 9l13 8l11 11l14 -9l16 3l12 3l11 -1h9l6 -10l25 -9l-1 11l18 3q-8 5 -11 8.5t-3 8.5l1 18v1q0 8 -7.5 12.5t-19.5 3.5l-3 15l-12 9l-18 24l-32 33l-11 12l12 4l-11 10l14 4l-1 12q-27 5 -32 17l-11 33l-9 14q4 5 5 8t2 10l-25 3z" />
    <glyph glyph-name="brokenbar" unicode="&#xa6;" horiz-adv-x="222" 
d="M73 411v250h77v-250h-77zM73 -89v250h77v-250h-77z" />
    <glyph glyph-name="section" unicode="&#xa7;" 
d="M135 469l-6 7l-1 16l-4 11v5l6 20l6 11l6 15l16 12q6 5 8 6t2 12l9 7l43 29l23 14l29 8l21 8l12 4l13 2l30 3l15 6l29 -6l22 -2l14 -5l24 -6q25 -5 25 -16q0 -4 -1 -7l-10 -4l-13 -11q-6 -5 -14 -8t-25 -8l-10 6l-26 22l-14 2l-20 8l-23 -1l-27 -1l-8 -5l-34 -17h-13v-7
l-11 -13l-20 -27l-19 -13l-4 -12l13 -7q-2 -5 -2 -11q0 -4 5 -16l-5 -3q1 -6 -1 -11t2 -7l13 -15l10 -5l12 -4l14 -7l20 1l23 3l16 -3l8 7l19 4l34 -3l38 -16l18 3l23 -21l34 -19q5 -3 8.5 -10t9.5 -21l6 -13q5 -11 6 -24.5t1 -26.5l-24 -40q-2 0 -10 2l-4 -8l9 -7l-5 -5
l-11 -4l-21 -12l-12 -18l-13 -9l-2 -1l10 -7q5 -1 7.5 -1h3.5q8 -6 11 -8t10 -2q5 0 11 -9.5t8 -17.5l-5 -11l10 -11l1 -16l2 -16v-5l-6 -20l-6 -11l-6 -15l-16 -12q-6 -5 -8 -6t-2 -12l-9 -7l-43 -29l-23 -14l-29 -8l-21 -8l-12 -4l-13 -2l-30 -3l-15 -6l-29 6l-22 2l-14 5
l-24 6q-25 5 -25 16q0 4 1 7l10 4l13 11q6 5 14 8t25 8l10 -6l26 -22l14 -2l20 -8l23 1l27 1l8 5l34 17h13v7l11 13l20 27l19 13l4 12l-13 7q2 5 2 11q0 4 -5 16l4 7l-5 11l-10 4l-3 13l-15 15l-9 -4l-13 7l-16 1l-18 6l-22 -4l-28 5l-28 -7q-4 0 -13 2t-35 7q-14 3 -18 4.5
t-8 4.5l-19 12l-13 1l-11 13q-14 10 -26 27.5t-12 29.5q0 4 2 15.5t1 21.5l-4 10l8 20l10 -1l3 13l-4 8l9 10l17 17l13 1l7 10l19 6q5 2 9 3.5t9 3.5l-10 5l-12 9h-1q-1 -1 -3 -1q-2 1 -3.5 5.5t-2.5 5.5q-8 4 -11 8q-1 0 -4 1t-3 2q-7 8 -9 12t-2 15zM235 386
q-6 -4 -11.5 -4t-11.5 -6l-23 -20l-6 -1l-1 -11l-10 -10l5 -12l-8 -23l-3 -9l7 -11l3 -17l9 -2l3 -23l16 -8l12 -14l12 -3l26 -13h18l12 -2l24 7l40 4l20 10l19 7q8 5 13.5 12.5t11.5 16.5q4 5 9 9t7 10q4 9 5.5 19.5t1.5 20.5t-6 18l-19 27l-5 12l-12 6l-12 -3l-7 6l-23 7
h-39l-9 10l-21 -8l-14 1l-10 5l-21 -9z" />
    <glyph glyph-name="dieresis" unicode="&#xa8;" horiz-adv-x="523" 
d="M79 578l10 7l21 16l11 13l13 11l7 -6l11 -7l30 -14q9 -5 13 -10.5t8 -16.5l-6 -11l-6 -17l-26 -23l-9 -9l-12 6l-48 44l-19 5zM319 579l59 45l11 -8l34 -20q10 -5 16.5 -12.5t6.5 -15.5q0 -6 -4.5 -12t-9.5 -11l-28 -22l-8 -9l-14 7l-13 15l-19 15l-11 15q-3 2 -7.5 3.5
t-13.5 3.5z" />
    <glyph glyph-name="copyright" unicode="&#xa9;" horiz-adv-x="778" 
d="M756 354q0 -76 -29 -142.5t-79 -116.5t-116.5 -79t-142.5 -29t-142.5 29t-116.5 79t-79 116.5t-29 142.5t29 142.5t79 116t116.5 78.5t142.5 29t142.5 -29t116.5 -78.5t79 -116t29 -142.5zM714 354q0 67 -25.5 126.5t-70 103t-103.5 69t-126 25.5q-68 0 -127 -25.5
t-103 -69t-69.5 -103t-25.5 -126.5q0 -68 25.5 -127t69.5 -103t103 -69.5t127 -25.5q67 0 126 25.5t103.5 70t70 103.5t25.5 126zM568 282q-4 -32 -19 -58t-38 -44.5t-52 -28.5t-60 -10q-45 0 -82 17t-63.5 46.5t-40.5 68t-14 82.5q0 42 13 81t37.5 69t60.5 47.5t81 17.5
q33 0 63 -10.5t54 -29.5t39.5 -46.5t18.5 -61.5h-60q-7 44 -37 70t-75 26q-33 0 -57 -14t-40 -36.5t-23.5 -51.5t-7.5 -58q0 -31 8 -60.5t24 -53t41 -37.5t60 -14q43 0 72 23.5t38 65.5h59z" />
    <glyph glyph-name="ordfeminine" unicode="&#xaa;" 
d="M194 869l10 4l26 8l9 5l2 1q2 0 6 2l16 -2q7 2 14 3.5t15 3.5l15 3l37 -1l16 -5l49 -10l8 -7l-6 -5v-5q1 0 2.5 1t2.5 1v-6q3 2 7 2h8.5t9.5 -4l5 -11l10 -12l-1 -23q0 -15 13 -25l4 -48l-10 -15v-4q2 -2 6 -8t6 -6l1 -2l-3 -34l3 -27v-15l-5 -1v-3q0 -6 1 -9.5t2.5 -7
t3.5 -8t6 -12.5l-7 -15l-20 -7q-3 -3 -5 -4q-2 -2 -4 -2.5t-4 -1.5l-16 -5q-2 -2 -8.5 -4t-12.5 -2q-8 0 -13.5 3t-5.5 5q0 4 2 8.5t2 9.5v3q-11 -3 -20.5 -7t-25.5 -4h-11q-2 0 -6 -3.5t-11 -5.5l-16 -2q-7 -2 -17.5 -4t-18.5 -4l-11 3q-2 0 -4 -2l-14 -3l-13 1l-24 5
q-28 0 -48 9.5t-25 24.5l3 -1v6q-4 0 -8.5 2.5t-6.5 2.5l-2 15q-2 6 -4 10l-2 4l10 22l2 8l4 3l-1 3q0 1 3.5 4.5t17.5 14.5l25 20l21 8q6 2 19 12t36 12v1q4 5 8.5 7t26.5 6l47 8l14 -1q4 0 8 2q5 2 12.5 2t14.5 1t12 4.5t5 12.5q0 6 -2 11t-2 7l3 25q-2 16 -15 17l-10 12
q-5 7 -9.5 12.5t-11.5 6.5l-19 5q-2 0 -4.5 0.5t-5.5 0.5h-10l-14 -2q-10 2 -11 3l-4 -4l-43 -22v-1q-4 -4 -9 -14t-25 -10l-12 2l-9 5q-13 1 -26 6q-11 5 -12 9q1 1 7 5q7 5 17 12l22 2zM185 658v-6q2 0 4 -2.5t2 -3.5l8 -34l-4 -9v-3q14 -12 22 -16t24 -7l5 -10
q3 -1 10 -1l10 11l10 -5q2 0 5.5 1t6.5 1q6 0 10 -3q6 0 24 12q21 0 33.5 7.5t16.5 14.5l24 19l1 4q-2 1 -5 3q5 2 6.5 4.5t3.5 10.5l4 -2v5q-10 8 -12 11l2 12q-1 8 -1.5 16t-1.5 16l5 7v4l-5 6q-8 0 -18 1t-19 1l-19 -1l-10 4q-11 0 -21 -1t-15 -5l-14 1v-1h-1l-58 -28v-1
q-2 -2 -4.5 -4t-2.5 -5l-7 -9l-18 -11z" />
    <glyph glyph-name="guillemotleft" unicode="&#xab;" horiz-adv-x="511" 
d="M33 186l3 7l7 7l60 40l28 15l28 22l8 7l3 10l7 7l21 28l16 7l29 14l13 -1l10 -3l-8 -12l-28 -32l-6 -10l-29 -14l-29 -26l-19 -12l-11 -6l-2 -14l3 -13q8 1 11.5 -1t6.5 -7q-3 -8 -3 -11l2 -8l13 -7l14 -26l21 -12l18 -19l14 -10l3 -12l3 -11l9 1q9 5 14.5 7t9.5 2h6
q1 -14 -0.5 -20t-6.5 -11l-8 -7l-11 -11l-27 -8l-13 -6l-14 3h-8v12l-4 8l-14 20q-17 25 -21.5 31t-8.5 6l-9 -2l-11 11q-10 11 -15.5 17.5t-11 10t-12.5 6t-19 6.5l-17 21q-12 -5 -17 -5q-3 0 -6 1zM214 189l3 7l7 7l60 40l28 15l28 22l8 7l3 10l7 7l21 28l16 7l29 14
l13 -1l10 -3l-8 -12l-28 -32l-6 -10l-29 -14l-29 -26l-19 -12l-11 -6l-2 -14l3 -13q8 1 11.5 -1t6.5 -7q-3 -8 -3 -11l2 -8l13 -7l14 -26l21 -12l18 -19l14 -10l3 -12l3 -11l9 1q9 5 14.5 7t9.5 2h6q1 -14 -0.5 -20t-6.5 -11l-8 -7l-11 -11l-27 -8l-13 -6l-14 3h-8v12l-4 8
l-14 20q-17 25 -21.5 31t-8.5 6l-9 -2l-11 11q-10 11 -15.5 17.5t-11 10t-12.5 6t-19 6.5l-17 21q-12 -5 -17 -5q-3 0 -6 1z" />
    <glyph glyph-name="logicalnot" unicode="&#xac;" 
d="M539 38l3 -22l-6 -10l-38 13l-9 15l-13 -7l-14 11q-2 1 -0.5 2t1.5 3q0 9 12 23l-5 3q-2 6 -1.5 11t0.5 10l4 39l-4 -1l5 13l-3 15q5 5 5 10.5t-1 22.5l-6 23l3 16l-1 18q-13 -4 -23 -5q-5 5 -11 5.5t-14 1.5l-38 -9l-13 4h-14q-5 5 -6.5 4t-2.5 5l-7 5q-5 0 -7 -1.5
t-3 -7.5l-15 -3l-37 4l-11 -12h-8q-15 0 -28 4l-24 5l-16 2l-12 8l-8 -15l-7 -1l-49 1l-19 -4l-15 11l-11 2l-22 -3l-10 6l13 38l15 9l-7 13l11 14q1 2 2 0.5t3 -1.5q9 0 23 -12l3 5q6 2 11 1.5t10 -0.5l39 -4l-1 4l13 -5l15 3l48 -14q8 5 12 7t10 4l55 -1l23 6l16 -3l53 5
l20 -9l15 12l18 -6q5 0 8 -0.5t7 -1.5q2 2 3 4l10 -3l18 12l18 -15l20 2q6 1 10 -9t6 -21q-5 -5 -7 -8.5t-3 -11.5l5 -7l-4 -13v-14q-5 -5 -4 -6.5t-5 -2.5l-5 -7l15 -22v-8q0 -15 -4 -28l-5 -24l-2 -16l-8 -12l15 -8l1 -7l-1 -9l4 -19l-11 -15z" />
    <glyph glyph-name="uni00AD" unicode="&#xad;" horiz-adv-x="460" 
d="M188 253q2 -20 15 -20q8 0 14 15q7 0 10 0.5t8 5.5l14 -6l55 -2l42 -7l42 10l11 -2l19 22l8 -9l-7 -11l-4 -11l-18 -17l-8 -9l-15 -7l-30 -23q-8 -5 -17 -5q-10 0 -14 2l-15 5l-6 1l-22 -3l-9 -1l-13 3q-23 6 -36 6h-2l-37 -2h-1l-31 8l-8 3q-9 0 -12 -1l-17 -4l-7 3
l-9 -9q-11 3 -17 3q-9 0 -21 -15q-17 1 -17 11q0 12 18 26l36 27l25 15l29 2l19 3l15 -6l7 -1h6z" />
    <glyph glyph-name="registered" unicode="&#xae;" horiz-adv-x="381" 
d="M374 535q0 -38 -14.5 -71.5t-39 -58t-58 -39t-71.5 -14.5t-71.5 14.5t-58 39t-39 58t-14.5 71.5t14 71.5t39 58.5t58 39.5t71 14.5t71.5 -14.5t58.5 -39.5t39.5 -58.5t14.5 -71.5zM344 535q0 32 -12 60t-33 49t-49 33t-60 12t-60 -12t-48.5 -33t-32.5 -49t-12 -60t12 -60
t33 -49t49 -33t60 -12t60 12t48.5 33t32.5 49t12 60zM238 440q-6 15 -5.5 28.5t-1.5 23.5t-11.5 16t-36.5 6h-27v-74h-39v192h74q14 0 29 -2t27 -8t20 -17t8 -29t-9 -29t-26 -17q17 -8 23 -18.5t7 -22.5t1 -24.5t6 -24.5h-39zM236 574q0 20 -16 24t-31 4h-33v-57h33
q7 0 15.5 1t15.5 4t11.5 8.5t4.5 15.5z" />
    <glyph glyph-name="macron" unicode="&#xaf;" horiz-adv-x="523" 
d="M214 606q4 -4 6.5 2t13.5 8l27 -3q11 -10 17.5 -11t20.5 4l4 9l11 -1q19 -2 27.5 -3t11.5 1l19 11l24 2l37 5l17 -4q8 -2 20 -11.5t15 -12.5q6 -9 -2 -17q-6 -4 -8 -5l-42 -5l-31 -5h-35l-70 -2l-33 3l-17 3l-29 -4q-9 -1 -16.5 -0.5t-15.5 2.5l-17 5l-17 -5l-24 -6
q-17 -3 -40 7l-13 -8l-13 10q-8 6 -17.5 17t-10.5 19q0 2 0.5 6t2.5 6q6 6 22 6l38 -7l16 -3l71 -9z" />
    <glyph glyph-name="degree" unicode="&#xb0;" horiz-adv-x="300" 
d="M44 533l13 21l-1 6q0 8 5 15t15 18q14 11 24 17.5t21 9.5l30 6l14 4l11 -4h20l23 -10q15 -3 21 -17q5 -12 10 -30t5 -30q0 -16 -11 -30.5t-30 -25t-44 -16.5t-53 -6l-6 7q-4 -3 -6.5 -3.5t-4.5 -0.5q-5 0 -7 4l-9 5l-21 15l-8 23l-11 9v13zM201 507l2 31q0 11 -6 21
t-17 24l-13 13q-8 0 -10.5 2t-6.5 8q-30 -9 -42.5 -19t-12.5 -24q0 -9 1.5 -18t3.5 -12l11 -15l18 -20l16 -5l13 -9z" />
    <glyph glyph-name="plusminus" unicode="&#xb1;" 
d="M482 19l-14 -10l-18 4l-48 6l-8 -10l-8 14l-11 -7l-16 -2l-24 -5q-7 -2 -14 -3t-12 -1h-9l-11 12l-35 -4l-14 3q-2 8 -12 8l-7 -4q-1 -6 -2 -9.5t-6 -7.5l-6 11h-8l-12 2l-38 -2q-7 -1 -10.5 -2.5t-9.5 -6.5q-11 2 -15.5 5.5t-6.5 8.5l-6 21l-13 11l6 19l-4 10q13 9 27 9
l15 -1l16 -12l19 9l51 -5l17 8l23 -5l51 3q5 -2 11 -5t13 -8l47 8l14 -3l13 5v-4l39 6q9 0 18 -3l4 -5q12 11 18 11q3 0 6 1.5t8 1.5l10 -14l-10 -14l14 -8l10 -31l-9 -6l-21 3zM241 320l-13 -7l-56 -9l-17 13q-6 2 -7 2q-7 0 -12 -11l-8 -2q-9 -1 -15 -1.5t-11 -0.5
q-7 0 -11 1.5t-10 3.5l-7 14q-3 7 -3 14q0 10 4.5 19t13.5 20v5l3 3l11 -2l26 -1l21 -5q7 0 10.5 -1.5t6.5 -3l6 -3t9 -1.5q5 0 8 2t8 7l32 4l8 -11q0 -2 3.5 -2.5t6.5 -0.5q19 0 19 15q0 3 -0.5 6.5t-1.5 8.5l-3 15q10 10 10 17q0 4 -5 16l-8 4l1 9q2 11 6 17t4 10v2
l-12 15l6 20l4 5l2 15q2 11 15.5 16.5t36.5 5.5q10 0 13.5 -2t5.5 -7l2 -36l-5 -17l1 -15l6 -20l-9 -4l-8 -10l14 -5l-1 -26l-9 -39l7 -13q11 11 19 11q2 0 10 -2l7 5h14l12 -7q5 0 15 1.5t21 1.5q12 0 24 -3q5 5 8 7.5t9 2.5q3 0 7 -1t9 -1q9 0 18 3q7 0 11.5 -3.5
t4.5 -21.5v-11q0 -17 -6 -28t-18 -11q-2 0 -8.5 0.5t-30.5 0.5h-7q-14 0 -19 4t-16 9l-8 -8l-24 -2q-14 1 -17 1.5t-3 1.5q-3 -3 -7 -3l-7 -1q-7 4 -8 4t-2 -1.5t-4 -1.5q-4 0 -6 2l-5 -14l9 -8l-2 -22l4 -17v-11q0 -6 -2 -9t-4 -10l-4 -15l2 -15l5 -6q1 -4 1 -12
q0 -11 -7 -25l-20 -7l-8 -7q-9 -9 -22 -9q-24 0 -24 25l10 26l-5 18l13 10v14l-10 8l-7 18l8 17l-1 15l8 12l-13 18z" />
    <glyph glyph-name="uni00B2" unicode="&#xb2;" horiz-adv-x="366" 
d="M19 275l16 6q5 2 8 4t8 2h4q8 20 15 21t21 1q3 7 6 9.5t11 5.5q-1 1 -1 3q0 4 4 8.5t9 8t10.5 7t7.5 5.5l9 13l16 13l13 6l1 12l25 25q5 9 8 23t4 22l3 25q-8 11 -5.5 17t-0.5 18q-6 5 -7.5 6t-1.5 3v2q0 1 -3 7l3 9q-5 8 -8.5 10t-11.5 3l-15 11q-7 5 -19 8t-20 3
q-13 0 -23.5 -4.5t-16.5 -9.5l-29 -22l-12 -5l-14 13q2 9 4 12.5t10 14.5l16 10h6q4 0 5 1l5 6l33 16l6 5q8 6 16 8t27 2q10 0 15 -1t8.5 -3t8 -5t13.5 -8q4 0 13 6l12 -5q14 -5 14.5 -7.5t1.5 -5.5l7 -11l10 -6q5 -3 13 -12t14 -18l5 -12v-25l4 -19q0 -9 -3.5 -13.5
t-12.5 -8.5l-1 -8l-17 -13q6 -9 6 -13q0 -7 -5 -14l-32 -33l-10 -13l-16 -10l-19 -15q-4 -12 -14 -16t-10 -12q0 -1 -1 -1.5t5 -4.5l20 3l23 -12l29 3l11 -5l17 2l15 -2q6 0 14.5 6.5t17.5 8.5l11 -6v-12q0 -5 -2 -9l-22 -27l-21 -8l-25 -19q-8 -5 -15 -5q-16 0 -34.5 7
t-26.5 7l-34 -2l-2 13l-5 4l-11 -1l-3 -14l-22 -2l-18 -6q-15 -5 -33 -5q-40 0 -40 9v5z" />
    <glyph glyph-name="uni00B3" unicode="&#xb3;" horiz-adv-x="366" 
d="M241 627l8 6q7 5 13 6t10 1q10 0 10 -7q0 -23 -14 -41t-29 -36l-13 -15l-47 -36h6h6l12 9l14 1l10 6l5 -1l-3 -5l9 -4l5 8l17 -2l15 -9l14 -11q8 -11 14 -23t6 -26l-2 -20l-8 -1l-3 -10l7 -9l-1 -13l-2.5 -12.5t-6.5 -16.5l-8 -11l-9 -4l-9 -11l-36 -33l-7.5 -7.5t-6 -5
t-10 -6t-19.5 -9.5l-6 -6l-7 7l-13 -3l-1 -8l-11 -4l-17 -15q-2 -2 -5 -6.5t-17 -9.5l-11 -11h-7q-11 0 -15 3.5t-12 3.5h-7q-9 6 -9 15q0 10 8 12l33 10l14 8l13 -4l30 15l9 11l15 4l2 10l9 3l6 11l15 12l17 24v10q5 7 6.5 11t3.5 13l-6 7l-2 4l-1 14l-23 26l-20 4
q-2 0 -6 2.5t-9 2.5q-2 0 -4 -1q0 1 -2 1t-4.5 -2.5t-5.5 -2.5l-4 -9l-17 -10l-21 -5l-5 -9l-26 -1v8l6 9l-3 10l22 9l8 10l12 9q6 5 10 14l25 27l11 15l14 24q2 5 7.5 10.5t5.5 10.5q0 4 -1.5 5.5t-7.5 1.5h-8.5t-12.5 -2l-20 7l-30 5q-5 0 -15 -5q-13 -8 -19.5 -10.5
t-10.5 -2.5q-13 0 -13 11t11 16l37 20l34 22l18 -7l19 2l15 -6l15 2l14 -5l12 4z" />
    <glyph glyph-name="acute" unicode="&#xb4;" horiz-adv-x="523" 
d="M190 508q5 16 8.5 27t8.5 18l19 32q6 9 8.5 13.5t3.5 7t1 3v2.5l-2 17l-8 5l10 19l23 1l53 8l2 1q7 0 15 -8l-5 -7l-27 -46l-18 -20l-12 -12l2 -6l-6 -12l-20 -29l-19 -17l-6 -9h-3v2h-26z" />
    <glyph glyph-name="mu" unicode="&#xb5;" horiz-adv-x="559" 
d="M149 419q-5 -14 -7.5 -25.5t-2.5 -25.5l3 -28l-1 -12l-8 -24q-1 -15 -1.5 -19.5t-0.5 -7.5q0 -8 3 -15l8 -14l-11 -37l4 -12l-4 -21l-4 -18q0 -4 1 -6l7 -12l3 -32q1 -7 5 -17t10.5 -19.5t15.5 -17.5t21 -11l36 -10q10 -2 33 -2q16 0 24 3l28 11l30 -8q7 2 10 16l16 9
l22 30l18 15q7 9 9 27l4 50l4 11l-11 11l1 18l2 77l-3 26l-5 30q0 7 9 16l-2 9l-8 1l-2 15v4l4 15v10l8 -2l54 19q1 0 1 0.5t1 0.5q5 0 9 -9.5t4 -23.5l-4 -99l-7 -76l-13 5q-6 -14 -6 -19l3 -10q6 2 9 2q4 0 7 -3t3 -6l-5 -92l10 -17l5 -47q3 -5 6.5 -8.5t10.5 -13.5
q-2 -8 -5 -11.5t-10 -6.5l-56 -24q-15 8 -15 28l1 28l-9 2l-32 -15l-45 -22l-18 -9l-59 -11l-19 -6h-5q-5 0 -7 1l-18 7l-23 8l-20 7l-14 20l-10 8l-5 -37l7 -16l-5 -67l-7 -33l-1 -14h8l3 -90l-12 -2l-3 -8l2 -12l6 -26l-3 -11l7 5l5 -3l1 -33l3 -32l2 -22q0 -10 -15 -11
l-3 -7l17 -4l-1 -10l5 -24l2 -16l-6 -9l-12 -10l-10 -16l-12 -4l-26 -12l-8 -1l-18 1l-1 18l1 16l3 41l-1 41q1 8 3 11t8 8l-5 32q8 8 10.5 12t3.5 14q-8 3 -10.5 5.5t-4.5 9.5l4 18l-2 13l-1 52l-2 39l5 46l1 13q7 6 9 10.5t2 10.5q0 5 -1 10t-3 16l-11 3l-5 17v7l2 52
l5 23q-3 10 -3 21q0 7 10 16l-16 6l-1 19l-1 26q0 12 4 20l9 17l-9 27l1 29l-1 33q1 5 3 11t7 23v7l-9 -4l-6 6v10l1 59q0 13 -3 21l-4 6q0 1 -0.5 1.5t-0.5 1.5q0 8 12 15l6 3l36 15q11 5 15 6t9 1t13 -14l5 -11v0z" />
    <glyph glyph-name="paragraph" unicode="&#xb6;" horiz-adv-x="682" 
d="M423 676l1 -21v-3l92 5l26 -10l30 6l35 -4l20 -6l10 -11l22 8l14 -2l1 -16l-25 -18l-12 -10l-5 7l-9 -4l-1 -10l-17 -6l-33 13l-14 4q-2 1 -3.5 -6.5t-1.5 -9.5q-1 -1 -2 -1h-2q2 -11 5 -13.5t3 -7.5q0 -8 -3 -23h-12l-2 -27l8 -5l-1 -8l2 -33v-1l-7 -18l4 -15l1 -22
l2 -13l-3 -55l-7 -10l1 -12l-1 -8l6 -14l2 -9l-1 -10h-7v-15l8 -30l-2 -18l9 -50l-7 -36l-13 -7l3 -7l11 -6l3 -51l2 -24q0 -13 -10 -16l-16 -5l-15 -14l-12 -1l-23 -12q-4 -2 -5 -2q-11 0 -11 13q0 5 1 7l10 18l-3 29l13 17l-7 31l8 11l8 37v2q0 9 -15 11v10l7 49l-4 10
l4 56l-2 29l-10 4l-41 -3q-5 2 -8.5 3t-7.5 2l1 -61l-10 -13q1 -7 1 -12v-8q0 -8 -0.5 -14.5t-4.5 -17.5l4 -11l3 -1v-18l7 -78l-2 -26l1 -20q0 -7 -7 -12l2 -12l-9 -2l-16 -19l-9 -2l-13 -8q-2 0 -2.5 -0.5t-2.5 -0.5q-8 0 -8 6v12l-2 22l6 53l3 8q1 14 1 21t6 18l5 16
q-5 15 -5 18q0 9 10 28q2 4 2.5 7.5t1.5 7.5q0 9 -12 14l2 8l-3 2v15l7 34l1 14l-1 9q0 5 -8 15l-13 7l-24 -2l-26 -1l-51 -1l-22 8l-7 8l-17 -12q-9 6 -15.5 6.5t-10.5 1.5l-29 7l-1 9l-32 3l-19 15l8 4q-7 8 -12.5 10.5t-17.5 3.5q-8 8 -11 12.5t-5 12.5l11 9q-4 2 -7 2.5
t-5 1.5q-17 4 -20 13.5t-7 26.5l-8 27l7 20l1 13q11 8 11 14q0 1 -3 7l18 10l30 25l40 18q3 1 6.5 -1.5t8.5 2.5l9 15l31 6l12 4l25 10h44l8 9l3 1l18 -1l8 -1l22 11l35 1l-2 10l8 10l20 11l13 -6l16 15l7 1zM274 601h-2q-18 0 -48 -10.5t-59 -22.5l-6 5q-5 -2 -7 -3.5
t-11 -12.5l-26 -27l-3 -12l-1 -13l-3 -25l6 -20l34 -32l-2 -9l13 -8l2 -8l19 -13l10 -14q2 -4 8.5 -4t16.5 -3l34 -21l39 -2l67 3h6v26q-1 7 12 32l5 13q-9 5 -6.5 12t2.5 12v5.5t2 12.5l-8 10v19l-1 23q0 2 0.5 2.5t0.5 1.5l-1 17l-6 25l2 17l3 27l-3 8l1 5h-1l-44 -6z
M490 536l-9 6l-1 10l-1 37q0 26 -28 31l-25 -1l-1 -4v-20q0 -9 -2 -13l-9 -15l-2 -9q4 -5 5.5 -8.5t2.5 -14.5v-11q1 -3 -2 -8t-7 -8l-1 -12l-1 -10v-4l7 -14l-5 -23v-17l-7 -20l5 -37l-9 -24l5 -1l8 11l12 -2l44 20l15 -1q5 2 5 9q0 10 -10 10h-5l-2 8l5 38v25l6 20l-6 23
q-2 4 -2 7q0 11 15 22z" />
    <glyph glyph-name="periodcentered" unicode="&#xb7;" horiz-adv-x="252" 
d="M64 310l12 8q10 7 16 11t8 6l12 14l10 7l34 -22l13 -6q8 -4 13 -10t10 -19l-14 -27l-9 -5q-11 -8 -14.5 -12t-6.5 -12q-13 0 -18 5l-48 46l-12 3l-10 3z" />
    <glyph glyph-name="cedilla" unicode="&#xb8;" horiz-adv-x="523" 
d="M259 0l-4 -17l3 -11l-3 -18l2 -9q-4 -8 -4 -12v-6l2 -3l11 5q11 0 15.5 0.5t13.5 2.5l19 -7l1 -7l10 -2q5 -5 9 -13t4 -16q0 -3 -0.5 -6t-1.5 -5q2 -2 2.5 -5t0.5 -7q0 -10 -5.5 -16t-6.5 -19q-3 -13 -58 -41l-17 7q-7 -13 -15 -13q-15 0 -25 1.5t-19 4.5t-9 10
q0 11 7 11l22 1l13 5l10 -2l21 7l10 11l-1 9l7 14l5 7l-5 11l-10 6l-5 11q-5 0 -12 2l-18 -6q-7 0 -13 3.5t-6 10.5q0 8 6 20q0 6 2.5 15.5t2.5 12.5l-2 12l5 20l-1 21h37z" />
    <glyph glyph-name="uni00B9" unicode="&#xb9;" horiz-adv-x="366" 
d="M240 622v-4l1 -26l-2 -16l-9 -21l6 -26l1 -15q-15 -3 -15 -16t17 -20l-3 -21l-8 -6l2 -10q0 -2 -0.5 -2.5t-0.5 -1.5l5 -6l2 -27l-3 -10l-1 -10l-10 -12l-1 -7v-7l8 -10q6 -7 6.5 -12.5t0.5 -15.5l4 -18l3 -22q-13 -13 -35.5 -22.5t-40.5 -9.5q-13 0 -13 27v1l1 15l6 19
q-4 6 -4 50l1 24l9 13q5 7 5 14q0 4 -1 5l-8 21l-2 16l5 26l-1 22q0 12 -1 20t-5 19l-56 -1q-5 5 -5 9q0 5 1.5 9.5t3.5 5.5l53 27l39 36q16 13 31 13q4 0 15 -3z" />
    <glyph glyph-name="ordmasculine" unicode="&#xba;" 
d="M188 557l-6 3q-11 2 -15.5 4.5t-12.5 4.5q-29 21 -35.5 27t-6.5 8l-2 4l4 5q-9 4 -18 11l-10 27l7 11l6 6v6q-4 2 -9.5 5t-7.5 5v11q0 14 4.5 29.5t13.5 38.5l3 6q5 10 8.5 16t8 10t9.5 7t13 7l-3 4q7 11 22.5 21t31.5 16l8 8t8 7l71 27l67 4q13 0 20.5 -1.5t12.5 -3.5
t9.5 -3.5t11.5 -1.5l32 -12l26 -17l9 -18q6 -6 24 -6q13 -17 17.5 -31.5t6.5 -42.5l2 -13l-8 -2q-5 -7 -7 -8t-4 -3v-5q7 -5 13 -10v-5q0 -36 -29 -83q-5 -9 -12.5 -15.5t-17.5 -23.5l-19 -4q-17 -8 -35.5 -16.5t-34.5 -16.5l-40 -2q-7 -2 -14.5 -3t-18.5 -4l-27 1
q-4 -1 -7.5 -2t-6.5 -2l-34 7q-3 0 -6.5 0.5t-7.5 0.5h-8zM160 699q-6 -6 -6 -11v-3q11 0 13 -6l5 -22q14 -17 22 -35l-2 -15q4 0 8.5 -0.5t8.5 -0.5l44 -27q10 -1 23 -3.5t18 -2.5l26 -3q11 2 21.5 5.5t17.5 3.5v1q5 5 11 10.5t11 10.5l18 8l6 9q3 6 5.5 11.5t5.5 10.5
l8 17l15 10q0 1 0.5 3.5l1.5 7.5q0 3 -2.5 9.5t-4.5 9.5l7 40q-4 10 -7.5 21.5t-6.5 21.5l-2 16l4 -2v5q-5 5 -8 7t-6.5 4.5t-7.5 6.5t-11 12l-4 13l-12 10q-6 0 -19 5.5t-13 12.5q-2 -1 -5 -2t-8 -3q-3 1 -13 3l-2 4q-5 -1 -11.5 -1.5t-11.5 -1.5l-4 -2q-8 -2 -16 -5.5
t-13 -5.5l-4 2l-20 -13q-12 -8 -21.5 -18.5t-21.5 -19.5l-13 -10l1 -7q-2 -11 -8 -19t-6 -18q0 -3 -3.5 -12.5t-14.5 -12.5l-2 -8q1 -2 14 -15l1 -3z" />
    <glyph glyph-name="guillemotright" unicode="&#xbb;" horiz-adv-x="511" 
d="M483 220l-3 -7l-7 -7l-60 -40l-28 -15l-28 -22l-8 -7l-3 -10l-7 -7l-21 -28l-16 -7l-29 -14l-13 1l-10 3l8 12l28 32l6 10l29 14l29 26l19 12l11 6l2 14l-3 13q-8 -1 -11.5 1t-6.5 7q3 7 3 11l-2 8l-13 7l-14 26l-21 12l-18 19l-14 10l-3 12l-3 11l-9 -1q-9 -5 -14.5 -7
t-9.5 -2h-6q-1 14 0.5 20t6.5 11l8 7l11 11l27 8l13 6l14 -3h8v-12l4 -8l14 -20q8 -13 13 -20.5t8 -11t5 -4.5t4 -1l9 2l11 -11q10 -11 15.5 -17.5t11 -10t12.5 -6t19 -6.5l17 -21q12 5 17 5q3 0 6 -1zM304 216l-3 -7l-7 -7l-60 -40l-28 -15l-28 -22l-8 -7l-3 -10l-7 -7
l-21 -28l-16 -7l-29 -14l-13 1l-10 3l8 12l28 32l6 10l29 14l29 26l19 12l11 6l2 14l-3 13q-8 -1 -11.5 1t-6.5 7q3 7 3 11l-2 8l-13 7l-14 26l-21 12l-18 19l-14 10l-3 12l-3 11l-9 -1q-9 -5 -14.5 -7t-9.5 -2h-6q-1 14 0.5 20t6.5 11l8 7l11 11l27 8l13 6l14 -3h8v-12
l4 -8l14 -20q8 -13 13 -20.5t8 -11t5 -4.5t4 -1l9 2l11 -11q10 -11 15.5 -17.5t11 -10t12.5 -6t19 -6.5l17 -21q12 5 17 5q3 0 6 -1z" />
    <glyph glyph-name="onequarter" unicode="&#xbc;" horiz-adv-x="912" 
d="M244 622v-4l1 -26l-2 -16l-9 -21l6 -26l1 -15q-15 -3 -15 -16t17 -20l-3 -21l-8 -6l2 -10q0 -2 -0.5 -2.5t-0.5 -1.5l5 -6l2 -27l-3 -10l-1 -10l-10 -12l-1 -7v-7l8 -10q6 -7 6.5 -12.5t0.5 -15.5l4 -18l3 -22q-13 -13 -35.5 -22.5t-40.5 -9.5q-13 0 -13 27v1l1 15l6 19
q-4 6 -4 50l1 24l9 13q5 7 5 14q0 4 -1 5l-8 21l-2 16l5 26l-1 22q0 12 -1 20t-5 19l-56 -1q-5 5 -5 9q0 5 1.5 9.5t3.5 5.5l53 27l39 36q16 13 31 13q4 0 15 -3zM572 590l-3 -15q-2 -8 -15 -23l-9 -10l2 -10l-5 -10l-20 -29l-4 -13l-18 -9v-16l-7 -11l-31 -44l-31 -61
l-10 -15l-26 -39l-6 -10l-11 -2l-1 -3l3 -3l-8 -29q-23 -8 -24 -20l-3 -25l-16 -27l-10 -29l-16 -20l-6 -32l-17 -19l1 -15q-2 -10 -12 -20q-9 -11 -13.5 -14.5t-10.5 -5.5l-20 -5l-29 -12q-5 1 -9.5 4.5t-4.5 8.5t6 14q12 16 16 26l2 6l22 7q6 3 6 23l8 9l8 12l12 9l-6 11
l5 10q5 11 10.5 17t14.5 13v11l18 12q0 8 2 14.5t5.5 13.5t10.5 16t18 21q9 9 11 18l3 16l15 11l17 32l25 41l3 11l8 2l8 -5v8l-6 6q1 6 1.5 9.5t3 6.5t7 7l13.5 12q9 7 9 15l2 21l16 25l4 23l23 31l2 30l17 15v16q2 13 26 36l10 8l8 1l42 16q6 0 15 -9q-2 -10 -6 -17.5
t-12 -21.5q-8 -11 -13.5 -13.5t-13.5 -2.5zM433 131q5 19 7 24t5 7l12 6l9 9l22 12l33 44l22 10l7 14l17 12l13 29l17 25l5 10q11 3 15 10.5t6 12.5l7 13l35 39q7 7 18 7q6 0 17 -8l7 -9q0 -9 5 -17t5 -21l-3 -28l1 -7l-13 -18l6 -9v-14l4 -3l-8 -19l1 -8q0 -13 -3 -22
l10 -31q-2 -4 -2 -8q0 -8 3 -14t11 -6q6 0 10 1l6 6l22 10l19 5l10 8l11 1q9 0 9 -14v-5l-10 -6l-11 -10l-6 -8v-12l-8 -3q-1 -5 -3.5 -7.5t-13.5 -4.5l-25 -1l-16 4l-6 -3q-4 -3 -4 -13l3 -9l-4 -17l-7 -1q2 -8 3 -11.5t9 -5.5l4 -22l-11 -9q0 -1 0.5 -2t0.5 -3l-9 -13
l-19 -9l-26 -21l-10 -6q-8 0 -12.5 2t-4.5 12q0 6 3 10.5t11 10.5l-2 4l3 11l-1 8l7 9v10l-5 13l-3 18l9 9l-16 20l-9 1l-32 -4l-13 4l-12 -4l-21 3l-10 -5q-2 -1 -5 -1l-12 4l-15 13q-8 0 -10 -4l-9 -10q-3 -4 -10 -4l-26 1zM526 181l21 -6l6 -3l15 6q2 0 3 -1.5t18 -6.5
q10 -2 14 -2q12 0 24 13l11 -4l4 11l6 30q-5 13 -5 18q0 8 1.5 18t1.5 13q0 5 -1 6l-4 26l-11 8l-25 -25l-8 -18l-59 -48l-23 -28z" />
    <glyph glyph-name="onehalf" unicode="&#xbd;" horiz-adv-x="912" 
d="M236 622v-4l1 -26l-2 -16l-9 -21l6 -26l1 -15q-15 -3 -15 -16t17 -20l-3 -21l-8 -6l2 -10q0 -2 -0.5 -2.5t-0.5 -1.5l5 -6l2 -27l-3 -10l-1 -10l-10 -12l-1 -7v-7l8 -10q6 -7 6.5 -12.5t0.5 -15.5l4 -18l3 -22q-13 -13 -35.5 -22.5t-40.5 -9.5q-13 0 -13 27v1l1 15l6 19
q-4 6 -4 50l1 24l9 13q5 7 5 14q0 4 -1 5l-8 21l-2 16l5 26l-1 22q0 12 -1 20t-5 19l-56 -1q-5 5 -5 9q0 5 1.5 9.5t3.5 5.5l53 27l39 36q16 13 31 13q4 0 15 -3zM499 46l16 6q5 2 8 4t8 2h4q8 20 15 21t21 1q3 7 6 9.5t11 5.5q-1 1 -1 3q0 4 4 8.5t9 8t10.5 7t7.5 5.5l9 13
l16 13l13 6l1 12l25 25q5 9 8 23t4 22l3 25q-8 11 -5.5 17t-0.5 18q-6 5 -7.5 6t-1.5 3v2q0 1 -3 7l3 9q-5 8 -8.5 10t-11.5 3l-15 11q-7 5 -19 8t-20 3q-13 0 -23.5 -4.5t-16.5 -9.5l-29 -22l-12 -5l-14 13q2 9 4 12.5t10 14.5l16 10h6q4 0 5 1l5 6l33 16l6 5q8 6 16 8
t27 2q10 0 15 -1t8.5 -3t8 -5t13.5 -8q4 0 13 6l12 -5q14 -5 14.5 -7.5t1.5 -5.5l7 -11l10 -6q5 -3 13 -12t14 -18l5 -12v-25l4 -19q0 -9 -3.5 -13.5t-12.5 -8.5l-1 -8l-17 -13q6 -9 6 -13q0 -7 -5 -14l-32 -33l-10 -13l-16 -10l-19 -15q-4 -12 -14 -16t-10 -12
q0 -1 -1 -1.5t5 -4.5l20 3l23 -12l29 3l11 -5l17 2l15 -2q6 0 14.5 6.5t17.5 8.5l11 -6v-12q0 -5 -2 -9l-22 -27l-21 -8l-25 -19q-8 -5 -15 -5q-16 0 -34.5 7t-26.5 7l-34 -2l-2 13l-5 4l-11 -1l-3 -14l-22 -2l-18 -6q-15 -5 -33 -5q-40 0 -40 9v5zM564 590l-3 -15
q-2 -8 -15 -23l-9 -10l2 -10l-5 -10l-20 -29l-4 -13l-18 -9v-16l-7 -11l-31 -44l-31 -61l-10 -15l-26 -39l-6 -10l-11 -2l-1 -3l3 -3l-8 -29q-23 -8 -24 -20l-3 -25l-16 -27l-10 -29l-16 -20l-6 -32l-17 -19l1 -15q-2 -10 -12 -20q-9 -11 -13.5 -14.5t-10.5 -5.5l-20 -5
l-29 -12q-5 1 -9.5 4.5t-4.5 8.5t6 14q12 16 16 26l2 6l22 7q6 3 6 23l8 9l8 12l12 9l-6 11l5 10q5 11 10.5 17t14.5 13v11l18 12q0 8 2 14.5t5.5 13.5t10.5 16t18 21q9 9 11 18l3 16l15 11l17 32l25 41l3 11l8 2l8 -5v8l-6 6q1 6 1.5 9.5t3 6.5t7 7l13.5 12q9 7 9 15l2 21
l16 25l4 23l23 31l2 30l17 15v16q2 13 26 36l10 8l8 1l42 16q6 0 15 -9q-2 -10 -6 -17.5t-12 -21.5q-8 -11 -13.5 -13.5t-13.5 -2.5z" />
    <glyph glyph-name="threequarters" unicode="&#xbe;" horiz-adv-x="912" 
d="M267 627l8 6q7 5 13 6t10 1q10 0 10 -7q0 -23 -14 -41t-29 -36l-13 -15l-47 -36h6h6l12 9l14 1l10 6l5 -1l-3 -5l9 -4l5 8l17 -2l15 -9l14 -11q8 -11 14 -23t6 -26l-2 -20l-8 -1l-3 -10l7 -9l-1 -13l-2.5 -12.5t-6.5 -16.5l-8 -11l-9 -4l-9 -11l-36 -33l-7.5 -7.5t-6 -5
t-10 -6t-19.5 -9.5l-6 -6l-7 7l-13 -3l-1 -8l-11 -4l-17 -15q-2 -2 -5 -6.5t-17 -9.5l-11 -11h-7q-11 0 -15 3.5t-12 3.5h-7q-9 6 -9 15q0 10 8 12l33 10l14 8l13 -4l30 15l9 11l15 4l2 10l9 3l6 11l15 12l17 24v10q5 7 6.5 11t3.5 13l-6 7l-2 4l-1 14l-23 26l-20 4
q-2 0 -6 2.5t-9 2.5q-2 0 -4 -1q0 1 -2 1t-4.5 -2.5t-5.5 -2.5l-4 -9l-17 -10l-21 -5l-5 -9l-26 -1v8l6 9l-3 10l22 9l8 10l12 9q6 5 10 14l25 27l11 15l14 24q2 5 7.5 10.5t5.5 10.5q0 4 -1.5 5.5t-7.5 1.5h-8.5t-12.5 -2l-20 7l-30 5q-5 0 -15 -5q-13 -8 -19.5 -10.5
t-10.5 -2.5q-13 0 -13 11t11 16l37 20l34 22l18 -7l19 2l15 -6l15 2l14 -5l12 4zM610 590l-3 -15q-2 -8 -15 -23l-9 -10l2 -10l-5 -10l-20 -29l-4 -13l-18 -9v-16l-7 -11l-31 -44l-31 -61l-10 -15l-26 -39l-6 -10l-11 -2l-1 -3l3 -3l-8 -29q-23 -8 -24 -20l-3 -25l-16 -27
l-10 -29l-16 -20l-6 -32l-17 -19l1 -15q-2 -10 -12 -20q-9 -11 -13.5 -14.5t-10.5 -5.5l-20 -5l-29 -12q-5 1 -9.5 4.5t-4.5 8.5t6 14q12 16 16 26l2 6l22 7q6 3 6 23l8 9l8 12l12 9l-6 11l5 10q5 11 10.5 17t14.5 13v11l18 12q0 8 2 14.5t5.5 13.5t10.5 16t18 21q9 9 11 18
l3 16l15 11l17 32l25 41l3 11l8 2l8 -5v8l-6 6q1 6 1.5 9.5t3 6.5t7 7l13.5 12q9 7 9 15l2 21l16 25l4 23l23 31l2 30l17 15v16q2 13 26 36l10 8l8 1l42 16q6 0 15 -9q-2 -10 -6 -17.5t-12 -21.5q-8 -11 -13.5 -13.5t-13.5 -2.5zM471 131q5 19 7 24t5 7l12 6l9 9l22 12
l33 44l22 10l7 14l17 12l13 29l17 25l5 10q11 3 15 10.5t6 12.5l7 13l35 39q7 7 18 7q6 0 17 -8l7 -9q0 -9 5 -17t5 -21l-3 -28l1 -7l-13 -18l6 -9v-14l4 -3l-8 -19l1 -8q0 -13 -3 -22l10 -31q-2 -4 -2 -8q0 -8 3 -14t11 -6q6 0 10 1l6 6l22 10l19 5l10 8l11 1q9 0 9 -14v-5
l-10 -6l-11 -10l-6 -8v-12l-8 -3q-1 -5 -3.5 -7.5t-13.5 -4.5l-25 -1l-16 4l-6 -3q-4 -3 -4 -13l3 -9l-4 -17l-7 -1q2 -8 3 -11.5t9 -5.5l4 -22l-11 -9q0 -1 0.5 -2t0.5 -3l-9 -13l-19 -9l-26 -21l-10 -6q-8 0 -12.5 2t-4.5 12q0 6 3 10.5t11 10.5l-2 4l3 11l-1 8l7 9v10
l-5 13l-3 18l9 9l-16 20l-9 1l-32 -4l-13 4l-12 -4l-21 3l-10 -5q-2 -1 -5 -1l-12 4l-15 13q-8 0 -10 -4l-9 -10q-3 -4 -10 -4l-26 1zM564 181l21 -6l6 -3l15 6q2 0 3 -1.5t18 -6.5q10 -2 14 -2q12 0 24 13l11 -4l4 11l6 30q-5 13 -5 18q0 8 1.5 18t1.5 13q0 5 -1 6l-4 26
l-11 8l-25 -25l-8 -18l-59 -48l-23 -28z" />
    <glyph glyph-name="questiondown" unicode="&#xbf;" horiz-adv-x="482" 
d="M242 -15q-10 5 -13 5l-14 -4l-63 2q-16 0 -23 7l-17 13q-4 4 -28 9l-11 2q-2 4 -3 6.5t-3 5.5t-5.5 7.5t-9.5 13.5q-14 20 -14 33q0 11 12 30h9l10 9l-1 11l10 9l18 21l32 26l9 9l8 -3q6 -3 8 -3q5 0 15 10q-8 3 -8 9q0 3 1 4l46 54q4 4 4 10q0 16 -18 34l9 4
q-1 10 -3 14t-9 10q10 18 22 18h2l28 -5q13 -2 17 -4t5 -7l4 -15l6 -8l1 -8v-4l-9 -5v-8l-1 -7l-16 -15l-30 -45l-31 -29q-19 -20 -36 -29q-21 -11 -23 -17l-5 -21l-11 -25l4 -12l3 -5q11 -22 16 -27q3 -2 3 -3l6 -8l10 2l48 -18l11 -2l-3 -13l9 -4q4 0 13 7l2 7l8 -1l47 3
l24 -2q10 1 20 5.5t33 18.5q13 6 13 13t-6 16l-4 9l8 10q10 13 14 18t6 6l9 4l14 9q2 2 6 2l8 -1q12 -2 15.5 -5t3.5 -15q0 -11 -2 -17.5t-6 -11.5l-15 -17l-7 -10l-17 -11l-34 -29l-32 -15l-21 -11l-19 -2l-22 -10h-22zM282 560l-28 -17l-13 -12l-11 -6l-13 13l-43 32
q-3 3 -4 11l-3 11l10 10l7 12l27 18l7 9q11 -3 13 -5l14 -17l19 -18l13 -18q0 -1 1 -1l17 -7l-2 -8z" />
    <glyph glyph-name="Agrave" unicode="&#xc0;" horiz-adv-x="734" 
d="M14 22l14 17l10 19l15 18v5q20 3 20 18v12l15 18l21 46l12 17l13 32l17 26l19 35l20 19q2 2 2 5q0 4 -5 9q8 5 11.5 9t8.5 13l-6 9l6 10l8 23q1 3 12 12l-1 5l39 102q4 11 22 31l-4 11l3 13q5 20 10 24t22 8l3 7l-5 15l-2 8q0 7 6 10l33 22l7 15q9 13 27 14l6 -20h6
l-2 -5l7 -15l14 -18l18 -33l10 -27l12 -22l-12 -4q0 -5 4 -9q11 -6 14.5 -10t3.5 -9l-1 -9l11 -12l13 -20l8 -18l-4 -9l2 -10l7 -9l14 -12l17 -34l9 -15v-12q11 -10 15 -15t4 -10l-2 -7l12 -12l19 -35l17 -27l6 -12q2 -4 3 -6.5t1.5 -5t0.5 -7.5q17 -9 17 -19q0 -1 -1 -2
l-2 -21l2 -7l20 -10l6 -9l3 -9q1 -7 16 -15v-11l17 -17l16 -27l8 -10q5 -7 9 -15t4 -12l-2 -6l-19 -16l-20 -29h-16l-10 -2l-1 9l-6 12l1 10l-1 9q-4 8 -5.5 12t-2.5 12h-8l-4 11l-17 33l-3 17l-25 43q-4 8 -4 20q0 2 0.5 4t0.5 4q-10 5 -16.5 13.5t-10 18t-5.5 17.5t-3 11
l-17 8q-4 -22 -17 -22l-53 9l-18 -1l-13 2l-70 -9l-41 2l-22 -6l-17 6l-13 3q-10 -13 -22 -13l-46 3l-16 -4l-21 -1q-11 -3 -24 -33l-9 -19l-5 -2q-5 -12 -8.5 -20.5t-7 -16t-9 -15.5t-12.5 -19l-1 -10l-7 -11l-27 -60q-3 -9 -22 -13l1 -8q-3 -1 -9 -1h-7q-7 0 -13.5 2
t-16.5 9zM206 257l16 -5l13 2l11 -4l2 4l9 1l63 -4l40 3l16 -7l4 4q3 3 9.5 3t29.5 2l13 2l-2 -5l4 -2q5 0 11 8l13 1q24 2 36 2.5t18.5 2t10.5 4t11 8.5l-4 4l2 3l-2 5h-10q-5 5 -6 11.5t-3 25.5l-1 10l-19 5l-23 46h-7l-30 59l4 11l-3 12l-23 12l-35 70q-2 5 -23 22l-6 -4
l-6 -20l-4 -1q-5 -15 -10.5 -24t-11 -15t-9 -11t-4.5 -12l-2 -12l-22 -48q-9 -19 -11 -24t-8 -11l-4 -10q-3 -10 -6 -12t-11 -3l-1 -11q-3 -26 -9 -37.5t-20 -20.5l9 -14q-7 -1 -9.5 -3t-4.5 -10l-3 -12zM218 879q12 7 17 7l25 -4l32 -1q17 -1 24.5 -4.5t12.5 -13.5
q-7 -5 -11 -10l4 -10l5 -19l22 -34l5 -16l-4 -4q2 -7 4.5 -8.5t9.5 -1.5l6 -7l-11 -17q-5 -1 -10 -1q-6 0 -18 5l-4 -2q-3 9 -3 10l-14 22q-3 6 -5.5 8.5t-10.5 7.5q-6 15 -14 22.5t-23 12.5l-7 12l-9 14l-12 13z" />
    <glyph glyph-name="Aacute" unicode="&#xc1;" horiz-adv-x="734" 
d="M14 22l14 17l10 19l15 18v5q20 3 20 18v12l15 18l21 46l12 17l13 32l17 26l19 35l20 19q2 2 2 5q0 4 -5 9q8 5 11.5 9t8.5 13l-6 9l6 10l8 23q1 3 12 12l-1 5l39 102q4 11 22 31l-4 11l3 13q5 20 10 24t22 8l3 7l-5 15l-2 8q0 7 6 10l33 22l7 15q9 13 27 14l6 -20h6
l-2 -5l7 -15l14 -18l18 -33l10 -27l12 -22l-12 -4q0 -5 4 -9q11 -6 14.5 -10t3.5 -9l-1 -9l11 -12l13 -20l8 -18l-4 -9l2 -10l7 -9l14 -12l17 -34l9 -15v-12q11 -10 15 -15t4 -10l-2 -7l12 -12l19 -35l17 -27l6 -12q2 -4 3 -6.5t1.5 -5t0.5 -7.5q17 -9 17 -19q0 -1 -1 -2
l-2 -21l2 -7l20 -10l6 -9l3 -9q1 -7 16 -15v-11l17 -17l16 -27l8 -10q5 -7 9 -15t4 -12l-2 -6l-19 -16l-20 -29h-16l-10 -2l-1 9l-6 12l1 10l-1 9q-4 8 -5.5 12t-2.5 12h-8l-4 11l-17 33l-3 17l-25 43q-4 8 -4 20q0 2 0.5 4t0.5 4q-10 5 -16.5 13.5t-10 18t-5.5 17.5t-3 11
l-17 8q-4 -22 -17 -22l-53 9l-18 -1l-13 2l-70 -9l-41 2l-22 -6l-17 6l-13 3q-10 -13 -22 -13l-46 3l-16 -4l-21 -1q-11 -3 -24 -33l-9 -19l-5 -2q-5 -12 -8.5 -20.5t-7 -16t-9 -15.5t-12.5 -19l-1 -10l-7 -11l-27 -60q-3 -9 -22 -13l1 -8q-3 -1 -9 -1h-7q-7 0 -13.5 2
t-16.5 9zM206 257l16 -5l13 2l11 -4l2 4l9 1l63 -4l40 3l16 -7l4 4q3 3 9.5 3t29.5 2l13 2l-2 -5l4 -2q5 0 11 8l13 1q24 2 36 2.5t18.5 2t10.5 4t11 8.5l-4 4l2 3l-2 5h-10q-5 5 -6 11.5t-3 25.5l-1 10l-19 5l-23 46h-7l-30 59l4 11l-3 12l-23 12l-35 70q-2 5 -23 22l-6 -4
l-6 -20l-4 -1q-5 -15 -10.5 -24t-11 -15t-9 -11t-4.5 -12l-2 -12l-22 -48q-9 -19 -11 -24t-8 -11l-4 -10q-3 -10 -6 -12t-11 -3l-1 -11q-3 -26 -9 -37.5t-20 -20.5l9 -14q-7 -1 -9.5 -3t-4.5 -10l-3 -12zM347 732q5 16 8.5 27t8.5 18l19 32q6 9 8.5 13.5t3.5 7t1 3v2.5
l-2 17l-8 5l10 19l23 1l53 8l2 1q7 0 15 -8l-32 -53l-30 -32l2 -6l-6 -12l-20 -29l-19 -17l-6 -9h-3v2h-26z" />
    <glyph glyph-name="Acircumflex" unicode="&#xc2;" horiz-adv-x="734" 
d="M14 22l14 17l10 19l15 18v5q20 3 20 18v12l15 18l21 46l12 17l13 32l17 26l19 35l20 19q2 2 2 5q0 4 -5 9q8 5 11.5 9t8.5 13l-6 9l6 10l8 23q1 3 12 12l-1 5l39 102q4 11 22 31l-4 11l3 13q5 20 10 24t22 8l3 7l-5 15l-2 8q0 7 6 10l33 22l7 15q9 13 27 14l6 -20h6
l-2 -5l7 -15l14 -18l18 -33l10 -27l12 -22l-12 -4q0 -5 4 -9q11 -6 14.5 -10t3.5 -9l-1 -9l11 -12l13 -20l8 -18l-4 -9l2 -10l7 -9l14 -12l17 -34l9 -15v-12q11 -10 15 -15t4 -10l-2 -7l12 -12l19 -35l17 -27l6 -12q2 -4 3 -6.5t1.5 -5t0.5 -7.5q17 -9 17 -19q0 -1 -1 -2
l-2 -21l2 -7l20 -10l6 -9l3 -9q1 -7 16 -15v-11l17 -17l16 -27l8 -10q5 -7 9 -15t4 -12l-2 -6l-19 -16l-20 -29h-16l-10 -2l-1 9l-6 12l1 10l-1 9q-4 8 -5.5 12t-2.5 12h-8l-4 11l-17 33l-3 17l-25 43q-4 8 -4 20q0 2 0.5 4t0.5 4q-10 5 -16.5 13.5t-10 18t-5.5 17.5t-3 11
l-17 8q-4 -22 -17 -22l-53 9l-18 -1l-13 2l-70 -9l-41 2l-22 -6l-17 6l-13 3q-10 -13 -22 -13l-46 3l-16 -4l-21 -1q-11 -3 -24 -33l-9 -19l-5 -2q-5 -12 -8.5 -20.5t-7 -16t-9 -15.5t-12.5 -19l-1 -10l-7 -11l-27 -60q-3 -9 -22 -13l1 -8q-3 -1 -9 -1h-7q-7 0 -13.5 2
t-16.5 9zM206 257l16 -5l13 2l11 -4l2 4l9 1l63 -4l40 3l16 -7l4 4q3 3 9.5 3t29.5 2l13 2l-2 -5l4 -2q5 0 11 8l13 1q24 2 36 2.5t18.5 2t10.5 4t11 8.5l-4 4l2 3l-2 5h-10q-5 5 -6 11.5t-3 25.5l-1 10l-19 5l-23 46h-7l-30 59l4 11l-3 12l-23 12l-35 70q-2 5 -23 22l-6 -4
l-6 -20l-4 -1q-5 -15 -10.5 -24t-11 -15t-9 -11t-4.5 -12l-2 -12l-22 -48q-9 -19 -11 -24t-8 -11l-4 -10q-3 -10 -6 -12t-11 -3l-1 -11q-3 -26 -9 -37.5t-20 -20.5l9 -14q-7 -1 -9.5 -3t-4.5 -10l-3 -12zM441 748q-11 1 -15.5 3.5t-17.5 16.5l-8 8q3 7 3 11t-4 11h-11l-8 12
q-11 16 -15 20.5t-14 4.5l-22 -2v-7l-9 -8q-24 -23 -29 -34l-7 -14l-19 -26l-15 -9l-15 -15q-7 -7 -21 -11t-22 -5q-2 0 -6 2.5t-7 5.5q12 18 18 21l34 19l13 19l32 30l6 13l50 53l52 33l13 13l7 5l12 14q1 1 4 1q5 0 8.5 -4t3.5 -9q0 -4 -3 -8l-13 -21q0 -10 11 -22l-4 -4
l1 -9l25 -12l30 -30l7 -9q-3 -6 -3 -15v-4l32 -12l5 -12q2 -9 2.5 -10.5t5.5 -4.5l35 6l6 -6q-34 -43 -64 -43l-19 5l-1 11q-9 4 -14 5.5t-11 1.5h-5z" />
    <glyph glyph-name="Atilde" unicode="&#xc3;" horiz-adv-x="734" 
d="M14 22l14 17l10 19l15 18v5q20 3 20 18v12l15 18l21 46l12 17l13 32l17 26l19 35l20 19q2 2 2 5q0 4 -5 9q8 5 11.5 9t8.5 13l-6 9l6 10l8 23q1 3 12 12l-1 5l39 102q4 11 22 31l-4 11l3 13q5 20 10 24t22 8l3 7l-5 15l-2 8q0 7 6 10l33 22l7 15q9 13 27 14l6 -20h6
l-2 -5l7 -15l14 -18l18 -33l10 -27l12 -22l-12 -4q0 -5 4 -9q11 -6 14.5 -10t3.5 -9l-1 -9l11 -12l13 -20l8 -18l-4 -9l2 -10l7 -9l14 -12l17 -34l9 -15v-12q11 -10 15 -15t4 -10l-2 -7l12 -12l19 -35l17 -27l6 -12q2 -4 3 -6.5t1.5 -5t0.5 -7.5q17 -9 17 -19q0 -1 -1 -2
l-2 -21l2 -7l20 -10l6 -9l3 -9q1 -7 16 -15v-11l17 -17l16 -27l8 -10q5 -7 9 -15t4 -12l-2 -6l-19 -16l-20 -29h-16l-10 -2l-1 9l-6 12l1 10l-1 9q-4 8 -5.5 12t-2.5 12h-8l-4 11l-17 33l-3 17l-25 43q-4 8 -4 20q0 2 0.5 4t0.5 4q-10 5 -16.5 13.5t-10 18t-5.5 17.5t-3 11
l-17 8q-4 -22 -17 -22l-53 9l-18 -1l-13 2l-70 -9l-41 2l-22 -6l-17 6l-13 3q-10 -13 -22 -13l-46 3l-16 -4l-21 -1q-11 -3 -24 -33l-9 -19l-5 -2q-5 -12 -8.5 -20.5t-7 -16t-9 -15.5t-12.5 -19l-1 -10l-7 -11l-27 -60q-3 -9 -22 -13l1 -8q-3 -1 -9 -1h-7q-7 0 -13.5 2
t-16.5 9zM206 257l16 -5l13 2l11 -4l2 4l9 1l63 -4l40 3l16 -7l4 4q3 3 9.5 3t29.5 2l13 2l-2 -5l4 -2q5 0 11 8l13 1q24 2 36 2.5t18.5 2t10.5 4t11 8.5l-4 4l2 3l-2 5h-10q-5 5 -6 11.5t-3 25.5l-1 10l-19 5l-23 46h-7l-30 59l4 11l-3 12l-23 12l-35 70q-2 5 -23 22l-6 -4
l-6 -20l-4 -1q-5 -15 -10.5 -24t-11 -15t-9 -11t-4.5 -12l-2 -12l-22 -48q-9 -19 -11 -24t-8 -11l-4 -10q-3 -10 -6 -12t-11 -3l-1 -11q-3 -26 -9 -37.5t-20 -20.5l9 -14q-7 -1 -9.5 -3t-4.5 -10l-3 -12zM288 828l50 24q1 1 5 1q11 0 25 -6l15 -5q4 -5 5.5 -7.5t2.5 -9.5
l14 -2l28 -21l13 -6l6 7l4 -1l11 -7q6 0 12 2t20 9l10 6l9 19q4 6 12 7l17 3l13 8l12 -19l-19 -15l-22 -24q-5 -5 -10 -8t-14 -5l-5 -10l-10 -3l-27 -17l-17 -6l-15 -13l-17 5q-11 8 -18 11t-24 8q-4 10 -8 13t-15 5l-5 -7q-5 8 -10 11.5t-16 7.5l-14 5l-17 -6l-22 -7l-9 -9
l-18 6h-4l-1 -6l-6 4l-6 -4l-1 -7l4 -2l-1 -9q-15 -7 -22 -9t-13 -2q-14 0 -14 10q0 9 15 18q29 17 41.5 27t23.5 22z" />
    <glyph glyph-name="Adieresis" unicode="&#xc4;" horiz-adv-x="734" 
d="M14 22l14 17l10 19l15 18v5q20 3 20 18v12l15 18l21 46l12 17l13 32l17 26l19 35l20 19q2 2 2 5q0 4 -5 9q8 5 11.5 9t8.5 13l-6 9l6 10l8 23q1 3 12 12l-1 5l39 102q4 11 22 31l-4 11l3 13q5 20 10 24t22 8l3 7l-5 15l-2 8q0 7 6 10l33 22l7 15q9 13 27 14l6 -20h6
l-2 -5l7 -15l14 -18l18 -33l10 -27l12 -22l-12 -4q0 -5 4 -9q11 -6 14.5 -10t3.5 -9l-1 -9l11 -12l13 -20l8 -18l-4 -9l2 -10l7 -9l14 -12l17 -34l9 -15v-12q11 -10 15 -15t4 -10l-2 -7l12 -12l19 -35l17 -27l6 -12q2 -4 3 -6.5t1.5 -5t0.5 -7.5q17 -9 17 -19q0 -1 -1 -2
l-2 -21l2 -7l20 -10l6 -9l3 -9q1 -7 16 -15v-11l17 -17l16 -27l8 -10q5 -7 9 -15t4 -12l-2 -6l-19 -16l-20 -29h-16l-10 -2l-1 9l-6 12l1 10l-1 9q-4 8 -5.5 12t-2.5 12h-8l-4 11l-17 33l-3 17l-25 43q-4 8 -4 20q0 2 0.5 4t0.5 4q-10 5 -16.5 13.5t-10 18t-5.5 17.5t-3 11
l-17 8q-4 -22 -17 -22l-53 9l-18 -1l-13 2l-70 -9l-41 2l-22 -6l-17 6l-13 3q-10 -13 -22 -13l-46 3l-16 -4l-21 -1q-11 -3 -24 -33l-9 -19l-5 -2q-5 -12 -8.5 -20.5t-7 -16t-9 -15.5t-12.5 -19l-1 -10l-7 -11l-27 -60q-3 -9 -22 -13l1 -8q-3 -1 -9 -1h-7q-7 0 -13.5 2
t-16.5 9zM206 257l16 -5l13 2l11 -4l2 4l9 1l63 -4l40 3l16 -7l4 4q3 3 9.5 3t29.5 2l13 2l-2 -5l4 -2q5 0 11 8l13 1q24 2 36 2.5t18.5 2t10.5 4t11 8.5l-4 4l2 3l-2 5h-10q-5 5 -6 11.5t-3 25.5l-1 10l-19 5l-23 46h-7l-30 59l4 11l-3 12l-23 12l-35 70q-2 5 -23 22l-6 -4
l-6 -20l-4 -1q-5 -15 -10.5 -24t-11 -15t-9 -11t-4.5 -12l-2 -12l-22 -48q-9 -19 -11 -24t-8 -11l-4 -10q-3 -10 -6 -12t-11 -3l-1 -11q-3 -26 -9 -37.5t-20 -20.5l9 -14q-7 -1 -9.5 -3t-4.5 -10l-3 -12zM169 800l10 7l21 16l11 13l13 11l7 -6l11 -7l30 -14q9 -5 13 -10.5
t8 -16.5l-6 -11l-6 -17l-26 -23l-9 -9l-12 6l-48 44l-19 5zM409 801l59 45l11 -8l34 -20q10 -5 16.5 -12.5t6.5 -15.5q0 -6 -4.5 -12t-9.5 -11l-28 -22l-8 -9l-14 7l-13 15l-19 15l-11 15q-3 2 -7.5 3.5t-13.5 3.5z" />
    <glyph glyph-name="Aring" unicode="&#xc5;" horiz-adv-x="734" 
d="M14 22l14 17l10 19l15 18v5q20 3 20 18v12l15 18l21 46l12 17l13 32l17 26l19 35l20 19q2 2 2 5q0 4 -5 9q8 5 11.5 9t8.5 13l-6 9l6 10l8 23q1 3 12 12l-1 5l39 102q4 11 22 31l-4 11l3 13q5 20 10 24t22 8l3 7l-5 15l-2 8q0 7 6 10l33 22l7 15q9 13 27 14l6 -20h6
l-2 -5l7 -15l14 -18l18 -33l10 -27l12 -22l-12 -4q0 -5 4 -9q11 -6 14.5 -10t3.5 -9l-1 -9l11 -12l13 -20l8 -18l-4 -9l2 -10l7 -9l14 -12l17 -34l9 -15v-12q11 -10 15 -15t4 -10l-2 -7l12 -12l19 -35l17 -27l6 -12q2 -4 3 -6.5t1.5 -5t0.5 -7.5q17 -9 17 -19q0 -1 -1 -2
l-2 -21l2 -7l20 -10l6 -9l3 -9q1 -7 16 -15v-11l17 -17l16 -27l8 -10q5 -7 9 -15t4 -12l-2 -6l-19 -16l-20 -29h-16l-10 -2l-1 9l-6 12l1 10l-1 9q-4 8 -5.5 12t-2.5 12h-8l-4 11l-17 33l-3 17l-25 43q-4 8 -4 20q0 2 0.5 4t0.5 4q-10 5 -16.5 13.5t-10 18t-5.5 17.5t-3 11
l-17 8q-4 -22 -17 -22l-53 9l-18 -1l-13 2l-70 -9l-41 2l-22 -6l-17 6l-13 3q-10 -13 -22 -13l-46 3l-16 -4l-21 -1q-11 -3 -24 -33l-9 -19l-5 -2q-5 -12 -8.5 -20.5t-7 -16t-9 -15.5t-12.5 -19l-1 -10l-7 -11l-27 -60q-3 -9 -22 -13l1 -8q-3 -1 -9 -1h-7q-7 0 -13.5 2
t-16.5 9zM206 257l16 -5l13 2l11 -4l2 4l9 1l63 -4l40 3l16 -7l4 4q3 3 9.5 3t29.5 2l13 2l-2 -5l4 -2q5 0 11 8l13 1q24 2 36 2.5t18.5 2t10.5 4t11 8.5l-4 4l2 3l-2 5h-10q-5 5 -6 11.5t-3 25.5l-1 10l-19 5l-23 46h-7l-30 59l4 11l-3 12l-23 12l-35 70q-2 5 -23 22l-6 -4
l-6 -20l-4 -1q-5 -15 -10.5 -24t-11 -15t-9 -11t-4.5 -12l-2 -12l-22 -48q-9 -19 -11 -24t-8 -11l-4 -10q-3 -10 -6 -12t-11 -3l-1 -11q-3 -26 -9 -37.5t-20 -20.5l9 -14q-7 -1 -9.5 -3t-4.5 -10l-3 -12zM279 783l11 17l-1 5q0 6 5.5 14t14 15t17.5 12t15 7l35 8l9 -3h16
l19 -8q8 -2 13.5 -8.5t9 -16t5 -19.5t1.5 -18q0 -13 -9 -24.5t-24 -20t-35.5 -13.5t-43.5 -5l-4 5q-4 -2 -9 -2q-4 0 -6 2l-24 17l-6 19l-9 7v10zM401 767l2 21q-1 7 -4 14.5t-12 16.5l-9 9q-5 0 -7 1t-5 5q-20 -6 -28.5 -12.5t-8.5 -16.5q0 -6 1 -12.5t3 -8.5l19 -23l11 -3
l9 -6z" />
    <glyph glyph-name="AE" unicode="&#xc6;" horiz-adv-x="1132" 
d="M1013 34l5 1v5l45 13l49 7q-2 -11 -4.5 -16t-7.5 -9l-7 -4l-5 -7l-15 -11q-10 -10 -21 -10h-6l-8 -9l-7 -2l-7 -5l-30 6l-21 -3l-18 6l-21 -2l-49 3l-7 -1l-2 4l-45 -5l-10 7l-10 -1l-6 -1l-5 1l-9 1l-53 -5l-65 2l-151 -3h-11l-5 8l16 42l4 31l7 14l-6 17l1 29l-2 17
l4 17l1 6l-4 34l-3 13l-8 2l-34 -1l-27 3l-29 -5l-54 1l-25 -7l-38 4l-21 -2l-34 4h-13l-8 -8l-22 -22l-9 -5l-20 -23l1 -5l-12 -18l-20 -28l-5 -6l-8 -11l-11 3q-12 -16 -12 -28q0 -5 3 -12l-8 -8l-7 -8l-17 -31l-9 -4l-12 1q-10 -8 -17.5 -11.5t-15.5 -5.5h-25l-14 5
q5 17 6.5 22t5.5 7l24 15l17 18l28 26l19 23q9 16 13.5 20t16.5 6q11 20 16.5 27.5t19.5 18.5l-3 8l44 39q10 8 13 11.5t8 12.5l12 9l6 15l32 35l20 23l7 3l11 13l8 6l-1 5l21 27l25 42l28 26l45 71l50 63l9 25l-7 15l25 14l44 12l11 4l13 -10l18 -2l29 -6l32 1l43 -12l22 8
l18 -2l35 -5l36 4l14 -2l15 2l24 -6h10l-3 3l11 6l35 5l30 8l10 3l4 -6l-6 -10l-12 -12l-9 -18l-18 -8l-8 -3h-65h-30l-17 4l-13 -4l-10 -1l-10 1l-6 -1l-24 -1l-9 5l-10 3l-22 -4h-77l-10 -1l-2 -11l-1 -23l-3 -10l4 -33l-3 -13q4 -8 6.5 -12t5.5 -6t8.5 -3t15.5 -2l30 -5
l67 1l70 -8l25 2l23 -1l18 4l32 -5l36 7l23 -3l65 1l10 -1q6 4 9.5 6.5t8.5 4t12.5 3t19.5 3.5l6 -11l-9 -10l-18 -15l-9 -11l-14 -5l-14 -8l-35 8h-46l-28 6l-23 -5l-32 -2l-39 -3l-21 1l-42 -1l-10 -1l-32 5l-10.5 3.5t-9.5 -0.5l-18 -9l-5 -1l-11 1l-38 1q-37 0 -37 -16
l7 -27l-3 -17l1 -16q0 -9 -6 -15l-17 -18q0 -4 5 -7t10 -3h9v-5l-2 -35l5 -19l-11 -17q13 -16 13 -24l-15 -40l14 -24v-38l3 -61l-1 -10l9 -2l30 -8l33 -8l29 6l37 -6l29 4h113l15 1l25 -4h9q7 -9 14 -9q2 0 4 1l6 3l1 11l18 1l13 2zM287 278q3 -8 7 -11.5t17 -4.5l47 -1
l23 -2l15 -9l27 6l34 1l23 1l11 -3l23 6l13 4l-4 9l5 16l4 22l-7 40l3 39l10 17l-11 12l7 13l-14 21l5 14q2 6 2.5 12.5t-0.5 10.5l-3 11l-1 37q-3 11 -9 11q-3 0 -5 -2l-8 -15l-18 -13q-4 -4 -5 -10t-1 -12l-12 -4l-24 -35l-44 -44l-10 -21l-42 -51q-11 -13 -21 -22.5
t-16 -13.5q-12 -7 -14 -9.5t-2 -13.5z" />
    <glyph glyph-name="Ccedilla" unicode="&#xc7;" horiz-adv-x="740" 
d="M726 85q8 2 9.5 -2.5t1.5 -9.5q0 -8 -4 -15l-5 -9l-7 -22q-4 -5 -12 -7l-26 -2l-10 -5l-21 -6l-27 -9l-64 -4l-68 -14l-21 -1l-31 1l-1 -48q18 -8 26 -8l11 2l11 -12l20 -12q6 -4 5 -10l-2 -21l8 -17l-9 -22q-9 -17 -18.5 -25t-24.5 -12l-10 -6l-7 2l-10 5l-4 -12l-12 -2
h-20q-30 0 -30 14q0 4 6 13l15 2l32 2q13 1 23 17.5t10 36.5v11l-10 2l-3 10l-10 1l-9 -2l-15 -5q-4 0 -7 6t-3 13l1 8l4 19v38l3 14l-19 1q-6 22 -24 22q-5 0 -9 -2t-11 -8l2 -6l-95 27l-3 7l-6 -2q-9 0 -29 15l-27 19l-17 14l-8 11l-40 37l-1 13q10 0 10 6q0 5 -5.5 7.5
t-19.5 4.5l-11 2v12q-10 5 -14 9.5t-10 15.5l4 4l-4 4h-7l-32 86l5 3l1 5l-7 29l-1 29q0 11 3 18t9 17q5 -2 7.5 2.5t4.5 9.5q-5 12 -5 17q0 7 4 14l32 65q4 4 7 6.5t11 5.5l8 17l11 8l10 9l23 8l19 26q11 13 33 21l37 14l23 10l20 12l48 17q24 11 40 12h32l86 9l28 2l12 -2
l17 -7l25 1l21 -10l12 1q11 0 18.5 -6t7.5 -15q0 -11 -10 -18l-17 -10l-7 -7l-9 -2l-6 1l-39 18l-10 1v6l-7 7l-5 1l-27 -4l-36 7l-43 -3l-24 2h-7q-19 0 -29 -5l-32 -13l-15 -1l-22 -12l-18 -6l-34 -19l-10 2l-14 -11l1 -15q-18 -9 -26.5 -14t-12.5 -10l-40 -43l-8 -6l4 -4
l-4 -10q-2 -8 -3.5 -12.5t-3.5 -7t-4.5 -4l-7.5 -4.5l7 -7v-10l-6 -19l-1 -61l-3 -12l5 -12l12 -24l-3 -7l-10 -2l4 -10l20 -23l10 -28l7 -9l3 -11l20 -30l5 -10l9 -8l14 -23l9 -6l11 -14l10 -1q7 -6 9.5 -9.5t5.5 -10.5l10 -3l38 -17l15 -4l14 -13l43 -13l69 -15l28 -3h8
l38 3l57 -1l25 12l43 10l21 12l38 14z" />
    <glyph glyph-name="Egrave" unicode="&#xc8;" horiz-adv-x="722" 
d="M260 638q17 7 24 7q3 0 4 -1l74 -8l65 4l25 -7l15 3v6q22 2 31.5 4t17.5 5q21 8 26 8l10 -2q-2 -11 -6 -16t-16 -10q-1 -9 -4 -13t-14 -9q-26 -12 -42 -12h-5l-26 2l-22 -3l-45 5l-10 1q-8 5 -13 7t-14 2q-6 -7 -14.5 -9.5t-23.5 -2.5l-15 1l-2 9l-10 -3l-14 -6l-67 6
l-11 -16l4 -4v-4l2 -26l-4 -38l2 -14l1 -11l10 -3l67 -6q7 0 20 -10l15 3q13 5 20 5h1l52 -3l31 -1h28q10 0 15 1t13 6l37 -7l9 2l21 5l38 1l40 5l6 -2t8 -5l10 6q8 6 10 7t8 1l11 -1l11 1v-15l-13 -9l-30 -26q-6 -4 -10 -4h-2l-33 4l-42 -1l-23 5l-82 -5l-15 1
q-6 10 -12 10q-4 0 -6 -1l-22 -9l-64 7l-31 -11l-22 6l-18 -11l-54 4l-4 -7l2 -26l-8 -26l4 -8l7 -9l-7 -21q7 -13 9 -20l-2 -16l4 -45v-1q0 -6 -11 -20q13 -16 13 -26q0 -3 -2 -7l-13 -28l14 -25l6 -93l15 -3l66 -23l22 3q7 0 22 -8q9 9 14 9h2l45 -9l27 3l24 -5l58 4
l17 -3l28 -1l10 -3l-3 7l11 2l46 1l10 4l57 10q20 5 22 5q3 0 12 -3l-6 -21l-11 1q-7 0 -8 -3l-10 -21l-13 -9l-4 -5l-18 2l-21 -10h-1l-24 7l-3 1l-55 -2l-16 2l-5 8q-15 -3 -22 -4.5t-12 -1.5l-18 1l-12 -2l-4 10h-6l-5 -1l-17 -9l-96 -1l-14 -7q-17 11 -25 11l-5 -1
l-25 -7l-28 6l-86 -3q-3 -1 -11 2t-26 10l5 11l12 28l2 26l5 24v37l3 14l-2 113l2 29l-1 11l-3 11l20 1q-6 12 -10 17t-13 12l-2 8l2 36l-4 62l4 24l2 10l-10 3l-4 10l-2 32l-6 10l-1 5l1 12l4 6l27 -7l-8 7q-7 6 -7 10q0 2 2 8l-8 3l-10 -3q-2 24 -3 31.5t-6 9.5l-19 8
l5 10q3 4 16 9l9 3q24 11 37 11l2 -1l72 -12l33 -3zM202 879q12 7 17 7l25 -4l32 -1q17 -1 24.5 -4.5t12.5 -13.5q-7 -5 -11 -10l4 -10l5 -19l22 -34l5 -16l-4 -4q2 -7 4.5 -8.5t9.5 -1.5l6 -7l-11 -17q-5 -1 -10 -1q-6 0 -18 5l-4 -2q-3 9 -3 10l-14 22q-3 6 -5.5 8.5
t-10.5 7.5q-6 15 -14 22.5t-23 12.5l-7 12l-9 14l-12 13z" />
    <glyph glyph-name="Eacute" unicode="&#xc9;" horiz-adv-x="722" 
d="M260 638q17 7 24 7q3 0 4 -1l74 -8l65 4l25 -7l15 3v6q22 2 31.5 4t17.5 5q21 8 26 8l10 -2q-2 -11 -6 -16t-16 -10q-1 -9 -4 -13t-14 -9q-26 -12 -42 -12h-5l-26 2l-22 -3l-45 5l-10 1q-8 5 -13 7t-14 2q-6 -7 -14.5 -9.5t-23.5 -2.5l-15 1l-2 9l-10 -3l-14 -6l-67 6
l-11 -16l4 -4v-4l2 -26l-4 -38l2 -14l1 -11l10 -3l67 -6q7 0 20 -10l15 3q13 5 20 5h1l52 -3l31 -1h28q10 0 15 1t13 6l37 -7l9 2l21 5l38 1l40 5l6 -2t8 -5l10 6q8 6 10 7t8 1l11 -1l11 1v-15l-13 -9l-30 -26q-6 -4 -10 -4h-2l-33 4l-42 -1l-23 5l-82 -5l-15 1
q-6 10 -12 10q-4 0 -6 -1l-22 -9l-64 7l-31 -11l-22 6l-18 -11l-54 4l-4 -7l2 -26l-8 -26l4 -8l7 -9l-7 -21q7 -13 9 -20l-2 -16l4 -45v-1q0 -6 -11 -20q13 -16 13 -26q0 -3 -2 -7l-13 -28l14 -25l6 -93l15 -3l66 -23l22 3q7 0 22 -8q9 9 14 9h2l45 -9l27 3l24 -5l58 4
l17 -3l28 -1l10 -3l-3 7l11 2l46 1l10 4l57 10q20 5 22 5q3 0 12 -3l-6 -21l-11 1q-7 0 -8 -3l-10 -21l-13 -9l-4 -5l-18 2l-21 -10h-1l-24 7l-3 1l-55 -2l-16 2l-5 8q-15 -3 -22 -4.5t-12 -1.5l-18 1l-12 -2l-4 10h-6l-5 -1l-17 -9l-96 -1l-14 -7q-17 11 -25 11l-5 -1
l-25 -7l-28 6l-86 -3q-3 -1 -11 2t-26 10l5 11l12 28l2 26l5 24v37l3 14l-2 113l2 29l-1 11l-3 11l20 1q-6 12 -10 17t-13 12l-2 8l2 36l-4 62l4 24l2 10l-10 3l-4 10l-2 32l-6 10l-1 5l1 12l4 6l27 -7l-8 7q-7 6 -7 10q0 2 2 8l-8 3l-10 -3q-2 24 -3 31.5t-6 9.5l-19 8
l5 10q3 4 16 9l9 3q24 11 37 11l2 -1l72 -12l33 -3zM309 732q5 16 8.5 27t8.5 18l19 32q6 9 8.5 13.5t3.5 7t1 3v2.5l-2 17l-8 5l10 19l23 1l53 8l2 1q7 0 15 -8l-32 -53l-30 -32l2 -6l-6 -12l-20 -29l-19 -17l-6 -9h-3v2h-26z" />
    <glyph glyph-name="Ecircumflex" unicode="&#xca;" horiz-adv-x="722" 
d="M260 638q17 7 24 7q3 0 4 -1l74 -8l65 4l25 -7l15 3v6q22 2 31.5 4t17.5 5q21 8 26 8l10 -2q-2 -11 -6 -16t-16 -10q-1 -9 -4 -13t-14 -9q-26 -12 -42 -12h-5l-26 2l-22 -3l-45 5l-10 1q-8 5 -13 7t-14 2q-6 -7 -14.5 -9.5t-23.5 -2.5l-15 1l-2 9l-10 -3l-14 -6l-67 6
l-11 -16l4 -4v-4l2 -26l-4 -38l2 -14l1 -11l10 -3l67 -6q7 0 20 -10l15 3q13 5 20 5h1l52 -3l31 -1h28q10 0 15 1t13 6l37 -7l9 2l21 5l38 1l40 5l6 -2t8 -5l10 6q8 6 10 7t8 1l11 -1l11 1v-15l-13 -9l-30 -26q-6 -4 -10 -4h-2l-33 4l-42 -1l-23 5l-82 -5l-15 1
q-6 10 -12 10q-4 0 -6 -1l-22 -9l-64 7l-31 -11l-22 6l-18 -11l-54 4l-4 -7l2 -26l-8 -26l4 -8l7 -9l-7 -21q7 -13 9 -20l-2 -16l4 -45v-1q0 -6 -11 -20q13 -16 13 -26q0 -3 -2 -7l-13 -28l14 -25l6 -93l15 -3l66 -23l22 3q7 0 22 -8q9 9 14 9h2l45 -9l27 3l24 -5l58 4
l17 -3l28 -1l10 -3l-3 7l11 2l46 1l10 4l57 10q20 5 22 5q3 0 12 -3l-6 -21l-11 1q-7 0 -8 -3l-10 -21l-13 -9l-4 -5l-18 2l-21 -10h-1l-24 7l-3 1l-55 -2l-16 2l-5 8q-15 -3 -22 -4.5t-12 -1.5l-18 1l-12 -2l-4 10h-6l-5 -1l-17 -9l-96 -1l-14 -7q-17 11 -25 11l-5 -1
l-25 -7l-28 6l-86 -3q-3 -1 -11 2t-26 10l5 11l12 28l2 26l5 24v37l3 14l-2 113l2 29l-1 11l-3 11l20 1q-6 12 -10 17t-13 12l-2 8l2 36l-4 62l4 24l2 10l-10 3l-4 10l-2 32l-6 10l-1 5l1 12l4 6l27 -7l-8 7q-7 6 -7 10q0 2 2 8l-8 3l-10 -3q-2 24 -3 31.5t-6 9.5l-19 8
l5 10q3 4 16 9l9 3q24 11 37 11l2 -1l72 -12l33 -3zM390 748q-11 1 -15.5 3.5t-17.5 16.5l-8 8q3 7 3 11t-4 11h-11l-8 12q-11 16 -15 20.5t-14 4.5l-22 -2v-7l-9 -8q-24 -23 -29 -34l-7 -14l-19 -26l-15 -9l-15 -15q-7 -7 -21 -11t-22 -5q-2 0 -6 2.5t-7 5.5q12 18 18 21
l34 19l13 19l32 30l6 13l50 53l52 33l13 13l7 5l12 14q1 1 4 1q5 0 8.5 -4t3.5 -9q0 -4 -3 -8l-13 -21q0 -10 11 -22l-4 -4l1 -9l25 -12l30 -30l7 -9q-3 -6 -3 -15v-4l32 -12l5 -12q2 -9 2.5 -10.5t5.5 -4.5l35 6l6 -6q-34 -43 -64 -43l-19 5l-1 11q-9 4 -14 5.5t-11 1.5h-5
z" />
    <glyph glyph-name="Edieresis" unicode="&#xcb;" horiz-adv-x="722" 
d="M260 638q17 7 24 7q3 0 4 -1l74 -8l65 4l25 -7l15 3v6q22 2 31.5 4t17.5 5q21 8 26 8l10 -2q-2 -11 -6 -16t-16 -10q-1 -9 -4 -13t-14 -9q-26 -12 -42 -12h-5l-26 2l-22 -3l-45 5l-10 1q-8 5 -13 7t-14 2q-6 -7 -14.5 -9.5t-23.5 -2.5l-15 1l-2 9l-10 -3l-14 -6l-67 6
l-11 -16l4 -4v-4l2 -26l-4 -38l2 -14l1 -11l10 -3l67 -6q7 0 20 -10l15 3q13 5 20 5h1l52 -3l31 -1h28q10 0 15 1t13 6l37 -7l9 2l21 5l38 1l40 5l6 -2t8 -5l10 6q8 6 10 7t8 1l11 -1l11 1v-15l-13 -9l-30 -26q-6 -4 -10 -4h-2l-33 4l-42 -1l-23 5l-82 -5l-15 1
q-6 10 -12 10q-4 0 -6 -1l-22 -9l-64 7l-31 -11l-22 6l-18 -11l-54 4l-4 -7l2 -26l-8 -26l4 -8l7 -9l-7 -21q7 -13 9 -20l-2 -16l4 -45v-1q0 -6 -11 -20q13 -16 13 -26q0 -3 -2 -7l-13 -28l14 -25l6 -93l15 -3l66 -23l22 3q7 0 22 -8q9 9 14 9h2l45 -9l27 3l24 -5l58 4
l17 -3l28 -1l10 -3l-3 7l11 2l46 1l10 4l57 10q20 5 22 5q3 0 12 -3l-6 -21l-11 1q-7 0 -8 -3l-10 -21l-13 -9l-4 -5l-18 2l-21 -10h-1l-24 7l-3 1l-55 -2l-16 2l-5 8q-15 -3 -22 -4.5t-12 -1.5l-18 1l-12 -2l-4 10h-6l-5 -1l-17 -9l-96 -1l-14 -7q-17 11 -25 11l-5 -1
l-25 -7l-28 6l-86 -3q-3 -1 -11 2t-26 10l5 11l12 28l2 26l5 24v37l3 14l-2 113l2 29l-1 11l-3 11l20 1q-6 12 -10 17t-13 12l-2 8l2 36l-4 62l4 24l2 10l-10 3l-4 10l-2 32l-6 10l-1 5l1 12l4 6l27 -7l-8 7q-7 6 -7 10q0 2 2 8l-8 3l-10 -3q-2 24 -3 31.5t-6 9.5l-19 8
l5 10q3 4 16 9l9 3q24 11 37 11l2 -1l72 -12l33 -3zM124 800l10 7l21 16l11 13l13 11l7 -6l11 -7l30 -14q9 -5 13 -10.5t8 -16.5l-6 -11l-6 -17l-26 -23l-9 -9l-12 6l-48 44l-19 5zM364 801l59 45l11 -8l34 -20q10 -5 16.5 -12.5t6.5 -15.5q0 -6 -4.5 -12t-9.5 -11l-28 -22
l-8 -9l-14 7l-13 15l-19 15l-11 15q-3 2 -7.5 3.5t-13.5 3.5z" />
    <glyph glyph-name="Igrave" unicode="&#xcc;" horiz-adv-x="240" 
d="M67 -3q9 18 9 27v11l13 43v32l22 4l1 4q0 5 -5 13l-12 -1l-2 2l-3 -3l3 25v13l3 36l-1 19l9 14q-8 7 -10 11.5t-2 18.5q0 8 1 13t6 14l-7 8l-1 14l3 47l-4 16l-1 10q4 3 5 5.5t1 8.5l-9 10l4 8l-4 36l6 18q0 10 -11 19v13l-3 40l3 18l-7 10l1 16v28q4 7 15 9l25 2
q4 1 6.5 4t9.5 15l17 5l16 6q1 0 7 -2q3 -11 3 -19l-1 -13l-4 -14l-10 -17l7 -51q0 -7 -2.5 -13.5t-8.5 -19.5v-9l7 -3l-1 -15l3 -40q0 -10 -2 -15.5t-10 -13.5l7 -11l-2 -15l1 -13l-10 -17l5 -13q4 -8 4 -14l-2 -27v-29l-7 -23v-4q0 -8 9 -12l-3 -17l3 -12l2 -21l-1 -8
l-9 -27l9 -5l-3 -8l4 -27l-2 -46l3 -19l1 -13q-43 -40 -61 -40l-6 1l-1 -5l-18 -4zM27 879q12 7 17 7l25 -4l32 -1q17 -1 24.5 -4.5t12.5 -13.5q-7 -5 -11 -10l4 -10l5 -19l22 -34l5 -16l-4 -4q2 -7 4.5 -8.5t9.5 -1.5l6 -7l-11 -17q-5 -1 -10 -1q-6 0 -18 5l-4 -2
q-3 9 -3 10l-14 22q-3 6 -5.5 8.5t-10.5 7.5q-6 15 -14 22.5t-23 12.5l-7 12l-9 14l-12 13z" />
    <glyph glyph-name="Iacute" unicode="&#xcd;" horiz-adv-x="240" 
d="M67 -3q9 18 9 27v11l13 43v32l22 4l1 4q0 5 -5 13l-12 -1l-2 2l-3 -3l3 25v13l3 36l-1 19l9 14q-8 7 -10 11.5t-2 18.5q0 8 1 13t6 14l-7 8l-1 14l3 47l-4 16l-1 10q4 3 5 5.5t1 8.5l-9 10l4 8l-4 36l6 18q0 10 -11 19v13l-3 40l3 18l-7 10l1 16v28q4 7 15 9l25 2
q4 1 6.5 4t9.5 15l17 5l16 6q1 0 7 -2q3 -11 3 -19l-1 -13l-4 -14l-10 -17l7 -51q0 -7 -2.5 -13.5t-8.5 -19.5v-9l7 -3l-1 -15l3 -40q0 -10 -2 -15.5t-10 -13.5l7 -11l-2 -15l1 -13l-10 -17l5 -13q4 -8 4 -14l-2 -27v-29l-7 -23v-4q0 -8 9 -12l-3 -17l3 -12l2 -21l-1 -8
l-9 -27l9 -5l-3 -8l4 -27l-2 -46l3 -19l1 -13q-43 -40 -61 -40l-6 1l-1 -5l-18 -4zM82 732q5 16 8.5 27t8.5 18l19 32q6 9 8.5 13.5t3.5 7t1 3v2.5l-2 17l-8 5l10 19l23 1l53 8l2 1q7 0 15 -8l-32 -53l-30 -32l2 -6l-6 -12l-20 -29l-19 -17l-6 -9h-3v2h-26z" />
    <glyph glyph-name="Icircumflex" unicode="&#xce;" horiz-adv-x="240" 
d="M67 -3q9 18 9 27v11l13 43v32l22 4l1 4q0 5 -5 13l-12 -1l-2 2l-3 -3l3 25v13l3 36l-1 19l9 14q-8 7 -10 11.5t-2 18.5q0 8 1 13t6 14l-7 8l-1 14l3 47l-4 16l-1 10q4 3 5 5.5t1 8.5l-9 10l4 8l-4 36l6 18q0 10 -11 19v13l-3 40l3 18l-7 10l1 16v28q4 7 15 9l25 2
q4 1 6.5 4t9.5 15l17 5l16 6q1 0 7 -2q3 -11 3 -19l-1 -13l-4 -14l-10 -17l7 -51q0 -7 -2.5 -13.5t-8.5 -19.5v-9l7 -3l-1 -15l3 -40q0 -10 -2 -15.5t-10 -13.5l7 -11l-2 -15l1 -13l-10 -17l5 -13q4 -8 4 -14l-2 -27v-29l-7 -23v-4q0 -8 9 -12l-3 -17l3 -12l2 -21l-1 -8
l-9 -27l9 -5l-3 -8l4 -27l-2 -46l3 -19l1 -13q-43 -40 -61 -40l-6 1l-1 -5l-18 -4zM211 748q-11 1 -15.5 3.5t-17.5 16.5l-8 8q3 7 3 11t-4 11h-11l-8 12q-11 16 -15 20.5t-14 4.5l-22 -2v-7l-9 -8q-24 -23 -29 -34l-7 -14l-19 -26l-15 -9l-15 -15q-7 -7 -21 -11t-22 -5
q-2 0 -6 2.5t-7 5.5q12 18 18 21l34 19l13 19l32 30l6 13l50 53l52 33l13 13l7 5l12 14q1 1 4 1q5 0 8.5 -4t3.5 -9q0 -4 -3 -8l-13 -21q0 -10 11 -22l-4 -4l1 -9l25 -12l30 -30l7 -9q-3 -6 -3 -15v-4l32 -12l5 -12q2 -9 2.5 -10.5t5.5 -4.5l35 6l6 -6q-34 -43 -64 -43
l-19 5l-1 11q-9 4 -14 5.5t-11 1.5h-5z" />
    <glyph glyph-name="Idieresis" unicode="&#xcf;" horiz-adv-x="240" 
d="M-13 809l10 9l21 13l11 13l13 11l7 -6l11 -7l30 -14q9 -5 13 -10.5t8 -16.5l-6 -11l-6 -17l-25 -27l-10 -5l-12 6l-48 44l-19 4zM142 817l49 37l11 -8l34 -20q10 -5 16.5 -12.5t6.5 -15.5q0 -6 -4.5 -12t-9.5 -11l-28 -22l-8 -9l-14 7l-13 15l-19 15l-16 10
q-3 2 -4.5 7.5t-1.5 12.5zM67 -3q9 18 9 27v11l13 43v32l22 4l1 4q0 5 -5 13l-12 -1l-2 2l-3 -3l3 25v13l3 36l-1 19l9 14q-8 7 -10 11.5t-2 18.5q0 8 1 13t6 14l-7 8l-1 14l3 47l-4 16l-1 10q4 3 5 5.5t1 8.5l-9 10l4 8l-4 36l6 18q0 10 -11 19v13l-3 40l3 18l-7 10l1 16
v28q4 7 15 9l25 2q4 1 6.5 4t9.5 15l17 5l16 6q1 0 7 -2q3 -11 3 -19l-1 -13l-4 -14l-10 -17l7 -51q0 -7 -2.5 -13.5t-8.5 -19.5v-9l7 -3l-1 -15l3 -40q0 -10 -2 -15.5t-10 -13.5l7 -11l-2 -15l1 -13l-10 -17l5 -13q4 -8 4 -14l-2 -27v-29l-7 -23v-4q0 -8 9 -12l-3 -17
l3 -12l2 -21l-1 -8l-9 -27l9 -5l-3 -8l4 -27l-2 -46l3 -19l1 -13q-43 -40 -61 -40l-6 1l-1 -5l-18 -4z" />
    <glyph glyph-name="Eth" unicode="&#xd0;" horiz-adv-x="826" 
d="M54 12l12 3q17 5 20 5l4 -1l8 9q9 9 9 13v15l6 21l1 10v6l6 4q-5 5 -6 9t-1 9l2 29l1 13l11 11q-6 9 -6 13l-1 16l-6 12l1 28v34l8 16v1l-12 4l-17 -5l-24 -6q-17 -3 -40 7l-13 -8l-13 10q-8 6 -17.5 17t-10.5 19q0 2 0.5 6t2.5 6q6 6 22 6l38 -7l16 -3l58 -8v7v9
q0 6 10 13l1 27h-12l-3 10l2 26l-5 38l4 11l-7 14l-1 48l-13 15l11 22l1 7l-3 28l-1 16l-9 1.5t-11 4.5l-13 5v14l17 7h38l21 9q9 4 26 4l32 1l18 -6l12 4l9 -5h16l19 -1l18 -2h1l16 3l33 -11l39 -1l13 -6l55 -6l33 -10l39 -7l27 -9l11 -4l-2 -10l6 -6l-4 -6l2 -2l-3 -4l3 1
l17 6l14 4l12 -4l18 -5l11 -7l1 -11l4 -1l19 1q3 0 9.5 -4.5t11.5 -12.5h7q8 0 15.5 -3.5t22.5 -14.5q17 -11 26 -20.5t20 -23.5l-7 -7l1 -7l6 -10l10 -7q4 -4 9 -22q-9 -4 -9 -10q0 -3 1 -4l14 -21q2 -4 2 -8l-5 -21l2 -24q-1 -11 -2.5 -16t-8.5 -12l-8 -10l-20 -5
q-3 -3 -6 -14l2 -2h5l-3 6l10 -7l-5 -7l-3 -12l-8 -13l-11 -16l-38 -24l-19 -30l-17 -12l-33 -35q-11 -9 -22 -14l-36 -12l-9 -4q0 -6 -1 -8.5t-4 -5.5l-10 -4l-57 -28l-35 -22q-19 -11 -33 -11q-6 0 -15 5q-5 -3 -8 -4.5t-6.5 -3t-9 -3t-14.5 -4.5l-28 -9l-19 -4l-40 -3
l-11 -2l-26 10q-14 -8 -19.5 -9.5t-17.5 -2.5l-3 4q-8 0 -12 1.5t-10 6.5l-18 2v-12q-10 -5 -17 -7t-17 -2q-11 0 -23 3q-42 11 -47 11q-11 0 -11 4v3zM168 448q12 -5 14.5 -7.5t2.5 -9.5q-10 -4 -10 -10q0 -4 1 -5l10 -24l-2 -62l19 -2q11 -10 17.5 -11t20.5 4l4 9l11 -1
q19 -2 27.5 -3t11.5 1l19 11l24 2l26 4l11 -9l17 6q8 -2 20 -11.5t15 -12.5q6 -9 -2 -17q-6 -4 -8 -5l-42 -15l-31 5l-26 -2l-7 7l-26 -6l-46 -1l-33 3l-17 3l-3 -1l-4 -20l4 -4l-2 -18l2 -27q1 -10 -2 -13.5t-17 -11.5l2 -15l17 -10v-12l-2 -59q0 -4 2.5 -12.5t5.5 -17.5
q3 -6 3 -11q0 -2 -4 -10h-9q-9 0 -16 -16q38 -7 48 -6l65 1l23 -2l73 21l11 1l55 21l37 15l15 6l11 9l36 14l28 27l11 5l6 7l6 18l20 11l11 17l21 24l4 12q15 0 19.5 2t4.5 7q0 7 -13 10q16 16 23.5 36.5t11.5 55.5q2 20 4.5 29.5t7.5 20.5q-9 4 -11.5 7.5t-3.5 13.5l-4 1v6
q0 5 -1 7.5t-5 7.5l-9 15l1 5l-10 9l-24 18q-5 4 -11 10.5t-17 20.5h-11q-8 0 -12.5 0.5t-7.5 1.5l-47 25l-21 4l-13 6l-11 2l-2 11q-14 3 -16 3q-5 0 -12 -6q-15 8 -25 10q-15 2 -18 3t-8 7l-8 8q-7 -4 -11.5 -5t-9.5 -1q-13 0 -20 6l-12 8l-30 5l-70 9l-34 -3l-7 4l-5 -4
l-5 -10l-11 5l-2 -14q-1 -15 -1.5 -19.5t-3.5 -12.5l2 -10q5 -15 6 -18.5t1 -8.5l-1 -9l-6 4h-3q1 -14 2 -18.5t6 -12.5v-14l-6 1q-5 -4 -9 -4h-5l-2 -10z" />
    <glyph glyph-name="Ntilde" unicode="&#xd1;" horiz-adv-x="653" 
d="M83 595q14 8 18 12t7 12l8 5l23 27q2 2 6 2q11 0 17 -14l22 -43l9 -11l8 -15l-3 -3l9.5 -9.5t6.5 -8t6 -10.5t9 -16l25 -42q8 -11 8 -17t-4 -11l20 -11l-3 -9l8 -10l20 -29l15 -14l5 -16l44 -47l-9 -5q2 -10 6 -13t16 -5l23 -32l-7 -1l13 -9q14 -10 17.5 -15t5.5 -19
l7 -7l-1 -7q0 -10 7 -23l11 -7q10 -5 15 -7t7 -4l21 -32l11 -7l14 -12l5 11l-1 59l10 24q-6 7 -8 10.5t-2 8.5t1 7l6 20l3 70l8 15l-6 15l4 23v1q0 6 -12 11l-2 127q7 1 9 4t3 13l-15 11l-2 17q-2 22 -6 29t-15 6q-2 8 -2 12q0 18 42 29q3 5 5.5 8.5t6 5.5t8.5 4.5t14 6.5
q6 -10 6 -18l-2 -14l3 -11l-1 -19l1 -41q0 -12 -3 -21l-4 -20v-1l8 -32l-2 -24l3 -11q-2 -5 -11 -9q7 -16 7 -18l-2 -40l2 -32l-6 -23l2 -32l-3 -45l3 -26l-3 -17l2 -46l-1 -13l-3 5q-8 -7 -8 -12q0 -9 14 -19q4 -17 4 -27q0 -19 -7.5 -37t-27.5 -48l-7 -11l-19 -11l-4 11
l-23 35l-29 37l-22 38l-8 10l2 11q0 11 -17 25q-23 18 -27 24l-27 48l-14 17l-9 25q-9 20 -31 20l-6 12l-28 46l-8 26l-16 18l-3 -4l-8 5q-34 57 -64 73q4 12 4 18q0 12 -9 12l-11 -4q-8 8 -13 8l-10 -5l11 -23l-12 -4l3 -8l-4 -21l2 -42l-3 -14l-8 -4l1 -12l8 -28
q1 -1 1 -2q0 -8 -12 -24l4 -20l4 -11v-144l6 -42v-1q0 -1 -0.5 -1t-0.5 -1l-6 -28l1 -6q9 -5 9 -11q0 -5 -5 -14t-19 -27l-6 -9l-11 1q-10 -11 -15 -11h-1l-11 1l-8 -2l1 12q0 12 4 18l11 14l8 12l-11 10l3 11l6 14q-5 15 -5 17q0 1 0.5 1.5t0.5 1.5l7 26l-2 56q4 7 15 10v5
l-11 13l2 11l-2 10l3 28l-1 2l-6 21l3 28l-2 20q0 6 3 10t11 9l-1 12l-7 16q0 5 3 14q-9 8 -9 16q0 5 1 10.5t5 19.5l-5 7l-1 14l-4 34q0 2 1 5.5t3 8.5v11q0 31 -5 37l-22 27l4 11zM254 828l50 24q1 1 5 1q11 0 25 -6l15 -5q4 -5 5.5 -7.5t2.5 -9.5l14 -2l28 -21l13 -6l6 7
l4 -1l11 -7q6 0 12 2t20 9l10 6l9 19q4 6 12 7l17 3l13 8l12 -19l-19 -15l-22 -24q-5 -5 -10 -8t-14 -5l-5 -10l-10 -3l-27 -17l-17 -6l-15 -13l-17 5q-11 8 -18 11t-24 8q-4 10 -8 13t-15 5l-5 -7q-5 8 -10 11.5t-16 7.5l-14 5l-17 -6l-22 -7l-9 -9l-18 6h-4l-1 -6l-6 4
l-6 -4l-1 -7l4 -2l-1 -9q-15 -7 -22 -9t-13 -2q-14 0 -14 10q0 9 15 18q29 17 41.5 27t23.5 22z" />
    <glyph glyph-name="Ograve" unicode="&#xd2;" horiz-adv-x="911" 
d="M40 308l3 27l24 63l3 11q5 14 12 22t20 16v6l25 28q6 -2 7 -2q7 0 10 6l7 21l9 12q6 11 15 16l15 7l13 16l31 21q26 20 35 20l8 -3l13 16l9 2l92 36q8 4 19 4q5 0 10.5 -1t14.5 -5l8 3l3 9l14 -2l8 -1h2l24 6l38 -2l19 4l16 -2l15 1l17 -6l29 -5l21 -12l60 -22l6 -5
l11 -7v-5l-2 -1q-4 -4 -4 -7q0 -4 11 -10l2 4q7 0 10 -2t7 -9q-1 -11 1 -15t10 -10q8 4 14 4q13 0 21 -10l8 -11l18 -16l2 -11l12 -15l3 -13q-8 -11 -8 -17q0 -3 1 -5l30 -30l2 -11l8 -23q0 -2 -2 -12l-7 -4v-5l8 -1l2 -11l5 -37q0 -3 -1 -5l-9 -29l1 -25l-7 -13q-2 1 -7 1
q-3 0 -5.5 -5t-2.5 -11q0 -2 1 -3q10 -17 10 -21t-2 -7q-7 -6 -9.5 -10t-4.5 -12l-11 -5l3 -3l-3 -3l8 -6l-1 -3l-9 -8l-11 -19l-8 -8q-7 7 -11 7q-9 0 -9 -10q0 -4 8 -14q-8 -14 -19 -24.5t-31 -22.5q-17 -11 -36 -21.5t-37 -19t-33.5 -14.5t-27.5 -9l-10 -2
q-16 -3 -28.5 -5t-17.5 -2h-2l-19 1l-12 -2l-18 11l-14 -6q-5 -4 -7.5 -5t-5.5 -1h-4q-5 10 -8.5 13.5t-11.5 7.5q-13 -7 -26 -11.5t-21 -4.5q-6 0 -11 4q-11 0 -12 1l-34 10l-29 -1l-11 9l-16 -2l-14 2l-20 6l-62 14l-17 14l-22 8l-23 24q-7 6 -23 6l-13 15q4 9 4 14
q0 8 -8 13t-28 8v4l-6 2l-6 11l-5 5v11l-10 29l-2 10l-8 43l3 42zM93 370q18 -11 18 -22l-1 -34l7 -50l-1 -12l16 -26q-12 -8 -12 -14q0 -13 16 -13q2 0 4.5 0.5t5.5 0.5l18 -22q-6 -8 -6 -11l4 -8h4l20 -19l26 -14l36 -30l28 -5l15 -16l51 -19l42 -18l14 1l90 -13l14 -1
l11 1l19 5l49 -3l21 4l37 15l14 4l7 -6q16 5 17 9l4 16l49 42l20 35l8 14h6l6 13l-3 5l3 9l2 40l8 19l2 14l7 5l5 30q-6 11 -8 16.5t-2 10.5v1l2 47l-1 15q15 10 15 20q0 21 -28 26l-3 27l-24 37l-4 15l-6 1l-9 11l-22 26l-20 13l-20 16l-9 3l-6 11h-10q-5 0 -10.5 1
t-10.5 4l-43 24l-43 6l-31 6l-30 -1h-23l-24 -7l-22 -3l-22 -13l-12 3h-1l-12 -4l-54 -30l-13 -2q-14 -20 -24 -23l-13 -5l-43 -42l-8 -6q-15 -11 -36 -48l-5 -9l-10 -2l-5 -10l-6 -25l-6 -7l-3 -10l-20 3q-2 -8 -4.5 -10.5t-10.5 -6.5zM373 879q12 7 17 7l25 -4l32 -1
q17 -1 24.5 -4.5t12.5 -13.5q-7 -5 -11 -10l4 -10l5 -19l22 -34l5 -16l-4 -4q2 -7 4.5 -8.5t9.5 -1.5l6 -7l-11 -17q-5 -1 -10 -1q-6 0 -18 5l-4 -2q-3 9 -3 10l-14 22q-3 6 -5.5 8.5t-10.5 7.5q-6 15 -14 22.5t-23 12.5l-7 12l-9 14l-12 13z" />
    <glyph glyph-name="Oacute" unicode="&#xd3;" horiz-adv-x="911" 
d="M40 308l3 27l24 63l3 11q5 14 12 22t20 16v6l25 28q6 -2 7 -2q7 0 10 6l7 21l9 12q6 11 15 16l15 7l13 16l31 21q26 20 35 20l8 -3l13 16l9 2l92 36q8 4 19 4q5 0 10.5 -1t14.5 -5l8 3l3 9l14 -2l8 -1h2l24 6l38 -2l19 4l16 -2l15 1l17 -6l29 -5l21 -12l60 -22l6 -5
l11 -7v-5l-2 -1q-4 -4 -4 -7q0 -4 11 -10l2 4q7 0 10 -2t7 -9q-1 -11 1 -15t10 -10q8 4 14 4q13 0 21 -10l8 -11l18 -16l2 -11l12 -15l3 -13q-8 -11 -8 -17q0 -3 1 -5l30 -30l2 -11l8 -23q0 -2 -2 -12l-7 -4v-5l8 -1l2 -11l5 -37q0 -3 -1 -5l-9 -29l1 -25l-7 -13q-2 1 -7 1
q-3 0 -5.5 -5t-2.5 -11q0 -2 1 -3q10 -17 10 -21t-2 -7q-7 -6 -9.5 -10t-4.5 -12l-11 -5l3 -3l-3 -3l8 -6l-1 -3l-9 -8l-11 -19l-8 -8q-7 7 -11 7q-9 0 -9 -10q0 -4 8 -14q-8 -14 -19 -24.5t-31 -22.5q-17 -11 -36 -21.5t-37 -19t-33.5 -14.5t-27.5 -9l-10 -2
q-16 -3 -28.5 -5t-17.5 -2h-2l-19 1l-12 -2l-18 11l-14 -6q-5 -4 -7.5 -5t-5.5 -1h-4q-5 10 -8.5 13.5t-11.5 7.5q-13 -7 -26 -11.5t-21 -4.5q-6 0 -11 4q-11 0 -12 1l-34 10l-29 -1l-11 9l-16 -2l-14 2l-20 6l-62 14l-17 14l-22 8l-23 24q-7 6 -23 6l-13 15q4 9 4 14
q0 8 -8 13t-28 8v4l-6 2l-6 11l-5 5v11l-10 29l-2 10l-8 43l3 42zM93 370q18 -11 18 -22l-1 -34l7 -50l-1 -12l16 -26q-12 -8 -12 -14q0 -13 16 -13q2 0 4.5 0.5t5.5 0.5l18 -22q-6 -8 -6 -11l4 -8h4l20 -19l26 -14l36 -30l28 -5l15 -16l51 -19l42 -18l14 1l90 -13l14 -1
l11 1l19 5l49 -3l21 4l37 15l14 4l7 -6q16 5 17 9l4 16l49 42l20 35l8 14h6l6 13l-3 5l3 9l2 40l8 19l2 14l7 5l5 30q-6 11 -8 16.5t-2 10.5v1l2 47l-1 15q15 10 15 20q0 21 -28 26l-3 27l-24 37l-4 15l-6 1l-9 11l-22 26l-20 13l-20 16l-9 3l-6 11h-10q-5 0 -10.5 1
t-10.5 4l-43 24l-43 6l-31 6l-30 -1h-23l-24 -7l-22 -3l-22 -13l-12 3h-1l-12 -4l-54 -30l-13 -2q-14 -20 -24 -23l-13 -5l-43 -42l-8 -6q-15 -11 -36 -48l-5 -9l-10 -2l-5 -10l-6 -25l-6 -7l-3 -10l-20 3q-2 -8 -4.5 -10.5t-10.5 -6.5zM460 732q5 16 8.5 27t8.5 18l19 32
q6 9 8.5 13.5t3.5 7t1 3v2.5l-2 17l-8 5l10 19l23 1l53 8l2 1q7 0 15 -8l-32 -53l-30 -32l2 -6l-6 -12l-20 -29l-19 -17l-6 -9h-3v2h-26z" />
    <glyph glyph-name="Ocircumflex" unicode="&#xd4;" horiz-adv-x="911" 
d="M40 308l3 27l24 63l3 11q5 14 12 22t20 16v6l25 28q6 -2 7 -2q7 0 10 6l7 21l9 12q6 11 15 16l15 7l13 16l31 21q26 20 35 20l8 -3l13 16l9 2l92 36q8 4 19 4q5 0 10.5 -1t14.5 -5l8 3l3 9l14 -2l8 -1h2l24 6l38 -2l19 4l16 -2l15 1l17 -6l29 -5l21 -12l60 -22l6 -5
l11 -7v-5l-2 -1q-4 -4 -4 -7q0 -4 11 -10l2 4q7 0 10 -2t7 -9q-1 -11 1 -15t10 -10q8 4 14 4q13 0 21 -10l8 -11l18 -16l2 -11l12 -15l3 -13q-8 -11 -8 -17q0 -3 1 -5l30 -30l2 -11l8 -23q0 -2 -2 -12l-7 -4v-5l8 -1l2 -11l5 -37q0 -3 -1 -5l-9 -29l1 -25l-7 -13q-2 1 -7 1
q-3 0 -5.5 -5t-2.5 -11q0 -2 1 -3q10 -17 10 -21t-2 -7q-7 -6 -9.5 -10t-4.5 -12l-11 -5l3 -3l-3 -3l8 -6l-1 -3l-9 -8l-11 -19l-8 -8q-7 7 -11 7q-9 0 -9 -10q0 -4 8 -14q-8 -14 -19 -24.5t-31 -22.5q-17 -11 -36 -21.5t-37 -19t-33.5 -14.5t-27.5 -9l-10 -2
q-16 -3 -28.5 -5t-17.5 -2h-2l-19 1l-12 -2l-18 11l-14 -6q-5 -4 -7.5 -5t-5.5 -1h-4q-5 10 -8.5 13.5t-11.5 7.5q-13 -7 -26 -11.5t-21 -4.5q-6 0 -11 4q-11 0 -12 1l-34 10l-29 -1l-11 9l-16 -2l-14 2l-20 6l-62 14l-17 14l-22 8l-23 24q-7 6 -23 6l-13 15q4 9 4 14
q0 8 -8 13t-28 8v4l-6 2l-6 11l-5 5v11l-10 29l-2 10l-8 43l3 42zM93 370q18 -11 18 -22l-1 -34l7 -50l-1 -12l16 -26q-12 -8 -12 -14q0 -13 16 -13q2 0 4.5 0.5t5.5 0.5l18 -22q-6 -8 -6 -11l4 -8h4l20 -19l26 -14l36 -30l28 -5l15 -16l51 -19l42 -18l14 1l90 -13l14 -1
l11 1l19 5l49 -3l21 4l37 15l14 4l7 -6q16 5 17 9l4 16l49 42l20 35l8 14h6l6 13l-3 5l3 9l2 40l8 19l2 14l7 5l5 30q-6 11 -8 16.5t-2 10.5v1l2 47l-1 15q15 10 15 20q0 21 -28 26l-3 27l-24 37l-4 15l-6 1l-9 11l-22 26l-20 13l-20 16l-9 3l-6 11h-10q-5 0 -10.5 1
t-10.5 4l-43 24l-43 6l-31 6l-30 -1h-23l-24 -7l-22 -3l-22 -13l-12 3h-1l-12 -4l-54 -30l-13 -2q-14 -20 -24 -23l-13 -5l-43 -42l-8 -6q-15 -11 -36 -48l-5 -9l-10 -2l-5 -10l-6 -25l-6 -7l-3 -10l-20 3q-2 -8 -4.5 -10.5t-10.5 -6.5zM556 748q-11 1 -15.5 3.5t-17.5 16.5
l-8 8q3 7 3 11t-4 11h-11l-8 12q-11 16 -15 20.5t-14 4.5l-22 -2v-7l-9 -8q-24 -23 -29 -34l-7 -14l-19 -26l-15 -9l-15 -15q-7 -7 -21 -11t-22 -5q-2 0 -6 2.5t-7 5.5q12 18 18 21l34 19l13 19l32 30l6 13l50 53l52 33l13 13l7 5l12 14q1 1 4 1q5 0 8.5 -4t3.5 -9
q0 -4 -3 -8l-13 -21q0 -10 11 -22l-4 -4l1 -9l25 -12l30 -30l7 -9q-3 -6 -3 -15v-4l32 -12l5 -12q2 -9 2.5 -10.5t5.5 -4.5l35 6l6 -6q-34 -43 -64 -43l-19 5l-1 11q-9 4 -14 5.5t-11 1.5h-5z" />
    <glyph glyph-name="Otilde" unicode="&#xd5;" horiz-adv-x="911" 
d="M40 308l3 27l24 63l3 11q5 14 12 22t20 16v6l25 28q6 -2 7 -2q7 0 10 6l7 21l9 12q6 11 15 16l15 7l13 16l31 21q26 20 35 20l8 -3l13 16l9 2l92 36q8 4 19 4q5 0 10.5 -1t14.5 -5l8 3l3 9l14 -2l8 -1h2l24 6l38 -2l19 4l16 -2l15 1l17 -6l29 -5l21 -12l60 -22l6 -5
l11 -7v-5l-2 -1q-4 -4 -4 -7q0 -4 11 -10l2 4q7 0 10 -2t7 -9q-1 -11 1 -15t10 -10q8 4 14 4q13 0 21 -10l8 -11l18 -16l2 -11l12 -15l3 -13q-8 -11 -8 -17q0 -3 1 -5l30 -30l2 -11l8 -23q0 -2 -2 -12l-7 -4v-5l8 -1l2 -11l5 -37q0 -3 -1 -5l-9 -29l1 -25l-7 -13q-2 1 -7 1
q-3 0 -5.5 -5t-2.5 -11q0 -2 1 -3q10 -17 10 -21t-2 -7q-7 -6 -9.5 -10t-4.5 -12l-11 -5l3 -3l-3 -3l8 -6l-1 -3l-9 -8l-11 -19l-8 -8q-7 7 -11 7q-9 0 -9 -10q0 -4 8 -14q-8 -14 -19 -24.5t-31 -22.5q-17 -11 -36 -21.5t-37 -19t-33.5 -14.5t-27.5 -9l-10 -2
q-16 -3 -28.5 -5t-17.5 -2h-2l-19 1l-12 -2l-18 11l-14 -6q-5 -4 -7.5 -5t-5.5 -1h-4q-5 10 -8.5 13.5t-11.5 7.5q-13 -7 -26 -11.5t-21 -4.5q-6 0 -11 4q-11 0 -12 1l-34 10l-29 -1l-11 9l-16 -2l-14 2l-20 6l-62 14l-17 14l-22 8l-23 24q-7 6 -23 6l-13 15q4 9 4 14
q0 8 -8 13t-28 8v4l-6 2l-6 11l-5 5v11l-10 29l-2 10l-8 43l3 42zM93 370q18 -11 18 -22l-1 -34l7 -50l-1 -12l16 -26q-12 -8 -12 -14q0 -13 16 -13q2 0 4.5 0.5t5.5 0.5l18 -22q-6 -8 -6 -11l4 -8h4l20 -19l26 -14l36 -30l28 -5l15 -16l51 -19l42 -18l14 1l90 -13l14 -1
l11 1l19 5l49 -3l21 4l37 15l14 4l7 -6q16 5 17 9l4 16l49 42l20 35l8 14h6l6 13l-3 5l3 9l2 40l8 19l2 14l7 5l5 30q-6 11 -8 16.5t-2 10.5v1l2 47l-1 15q15 10 15 20q0 21 -28 26l-3 27l-24 37l-4 15l-6 1l-9 11l-22 26l-20 13l-20 16l-9 3l-6 11h-10q-5 0 -10.5 1
t-10.5 4l-43 24l-43 6l-31 6l-30 -1h-23l-24 -7l-22 -3l-22 -13l-12 3h-1l-12 -4l-54 -30l-13 -2q-14 -20 -24 -23l-13 -5l-43 -42l-8 -6q-15 -11 -36 -48l-5 -9l-10 -2l-5 -10l-6 -25l-6 -7l-3 -10l-20 3q-2 -8 -4.5 -10.5t-10.5 -6.5zM377 828l50 24q1 1 5 1q11 0 25 -6
l15 -5q4 -5 5.5 -7.5t2.5 -9.5l14 -2l28 -21l13 -6l6 7l4 -1l11 -7q6 0 12 2t20 9l10 6l9 19q4 6 12 7l17 3l13 8l12 -19l-19 -15l-22 -24q-5 -5 -10 -8t-14 -5l-5 -10l-10 -3l-27 -17l-17 -6l-15 -13l-17 5q-11 8 -18 11t-24 8q-4 10 -8 13t-15 5l-5 -7q-5 8 -10 11.5
t-16 7.5l-14 5l-17 -6l-22 -7l-9 -9l-18 6h-4l-1 -6l-6 4l-6 -4l-1 -7l4 -2l-1 -9q-15 -7 -22 -9t-13 -2q-14 0 -14 10q0 9 15 18q29 17 41.5 27t23.5 22z" />
    <glyph glyph-name="Odieresis" unicode="&#xd6;" horiz-adv-x="911" 
d="M40 308l3 27l24 63l3 11q5 14 12 22t20 16v6l25 28q6 -2 7 -2q7 0 10 6l7 21l9 12q6 11 15 16l15 7l13 16l31 21q26 20 35 20l8 -3l13 16l9 2l92 36q8 4 19 4q5 0 10.5 -1t14.5 -5l8 3l3 9l14 -2l8 -1h2l24 6l38 -2l19 4l16 -2l15 1l17 -6l29 -5l21 -12l60 -22l6 -5
l11 -7v-5l-2 -1q-4 -4 -4 -7q0 -4 11 -10l2 4q7 0 10 -2t7 -9q-1 -11 1 -15t10 -10q8 4 14 4q13 0 21 -10l8 -11l18 -16l2 -11l12 -15l3 -13q-8 -11 -8 -17q0 -3 1 -5l30 -30l2 -11l8 -23q0 -2 -2 -12l-7 -4v-5l8 -1l2 -11l5 -37q0 -3 -1 -5l-9 -29l1 -25l-7 -13q-2 1 -7 1
q-3 0 -5.5 -5t-2.5 -11q0 -2 1 -3q10 -17 10 -21t-2 -7q-7 -6 -9.5 -10t-4.5 -12l-11 -5l3 -3l-3 -3l8 -6l-1 -3l-9 -8l-11 -19l-8 -8q-7 7 -11 7q-9 0 -9 -10q0 -4 8 -14q-8 -14 -19 -24.5t-31 -22.5q-17 -11 -36 -21.5t-37 -19t-33.5 -14.5t-27.5 -9l-10 -2
q-16 -3 -28.5 -5t-17.5 -2h-2l-19 1l-12 -2l-18 11l-14 -6q-5 -4 -7.5 -5t-5.5 -1h-4q-5 10 -8.5 13.5t-11.5 7.5q-13 -7 -26 -11.5t-21 -4.5q-6 0 -11 4q-11 0 -12 1l-34 10l-29 -1l-11 9l-16 -2l-14 2l-20 6l-62 14l-17 14l-22 8l-23 24q-7 6 -23 6l-13 15q4 9 4 14
q0 8 -8 13t-28 8v4l-6 2l-6 11l-5 5v11l-10 29l-2 10l-8 43l3 42zM93 370q18 -11 18 -22l-1 -34l7 -50l-1 -12l16 -26q-12 -8 -12 -14q0 -13 16 -13q2 0 4.5 0.5t5.5 0.5l18 -22q-6 -8 -6 -11l4 -8h4l20 -19l26 -14l36 -30l28 -5l15 -16l51 -19l42 -18l14 1l90 -13l14 -1
l11 1l19 5l49 -3l21 4l37 15l14 4l7 -6q16 5 17 9l4 16l49 42l20 35l8 14h6l6 13l-3 5l3 9l2 40l8 19l2 14l7 5l5 30q-6 11 -8 16.5t-2 10.5v1l2 47l-1 15q15 10 15 20q0 21 -28 26l-3 27l-24 37l-4 15l-6 1l-9 11l-22 26l-20 13l-20 16l-9 3l-6 11h-10q-5 0 -10.5 1
t-10.5 4l-43 24l-43 6l-31 6l-30 -1h-23l-24 -7l-22 -3l-22 -13l-12 3h-1l-12 -4l-54 -30l-13 -2q-14 -20 -24 -23l-13 -5l-43 -42l-8 -6q-15 -11 -36 -48l-5 -9l-10 -2l-5 -10l-6 -25l-6 -7l-3 -10l-20 3q-2 -8 -4.5 -10.5t-10.5 -6.5zM276 800l10 7l21 16l11 13l13 11
l7 -6l11 -7l30 -14q9 -5 13 -10.5t8 -16.5l-6 -11l-6 -17l-26 -23l-9 -9l-12 6l-48 44l-19 5zM516 801l59 45l11 -8l34 -20q10 -5 16.5 -12.5t6.5 -15.5q0 -6 -4.5 -12t-9.5 -11l-28 -22l-8 -9l-14 7l-13 15l-19 15l-11 15q-3 2 -7.5 3.5t-13.5 3.5z" />
    <glyph glyph-name="multiply" unicode="&#xd7;" 
d="M243 228l-16 6l-6 24l-19 6l-23 24l-13 9l-4 22q-3 9 -10 9q-4 0 -10 -2l-9 4q-7 3 -18.5 15t-13.5 25l5 14q5 14 18 20.5t33 8.5l4 4h5l25 -30l11 -20q10 -9 10 -15v-4q9 -12 13 -15t14 -3l17 -21q27 -24 27 -33v-4l-2 -11q0 -5 7 -11t12 -6t10.5 3.5t11.5 13.5l9 14
q14 1 19 4.5t10 17.5l-3 8l8 7q26 22 27 27l3 20l15 18l32 22q7 5 14.5 8.5t11.5 3.5q3 0 9.5 -4t13 -10t12 -11.5t5.5 -8.5q0 -4 -2 -8l-24 -33l-15 -9l-23 -25l-9 -18l-11 3l-11 -14l5 -15l-18 -6l-41 -45l-5 -14q12 -1 16.5 -3.5t11.5 -11.5l11 -2l9 -10l4 -14
q17 -19 29 -25t12 -15q0 -3 -4 -6l3 -4l5 1q5 0 7.5 -1.5t6.5 -8.5q11 0 16 -2.5t11 -11.5t15 -13.5t9 -15.5q0 -4 -2 -7t-10 -11l-9 -9q-10 -10 -22 -17t-21 -7q-2 0 -7 3t-12 14l-30 44q-2 2 -6 9.5t-12 27.5h-14l-18 15q-13 12 -13 19l-14 8q-3 12 -5.5 17.5t-10.5 16.5
l-13 -8l-7 -18l-18 -15l-18 -24q-5 -6 -10 -11.5t-12 -9.5l-14 -8l-45 -52q-5 -8 -12 -13t-19 -10l-20 10h-13q-26 0 -26 20q0 9 10 19l61 43l9 17l17 -3l11 12l-3 13l10 19l20 7l9 14l16 3l10 29z" />
    <glyph glyph-name="Oslash" unicode="&#xd8;" horiz-adv-x="911" 
d="M347 11l-9 -1h-17l-21 10h-12h-4l-42 9l-31 11l-24 -18l-23 -30l-15 -15l-9 -10l-15 -2l-9 -17l-26 -36l-7 -12l-14 -8l-9 -11l-27 -7l-10 -2l-11 2q-18 2 -24.5 4.5t-6.5 7.5v2l9 8l31 24l20 18l12 13l17 3l19 27l64 65l11 12l-11 12l-13 15l-27 8l-10 13q4 8 4 14l-2 8
l-13 9l-28 12l-11 27l-9 28l-7 43l-3 8l3 21v23l6 20l1 20l24 63l3 9l26 36l7 10l6 4l18 23h8q4 0 6 2.5t11 25.5q5 12 14.5 19.5t28.5 14.5q5 11 15 19.5t27 17.5l28 16l9 1l15 13l32 11l69 28l20 2l31 -2l6 11l10 -5l36 6l37 -1l16 4l24 -2l14 1l12 -5l33 -6l19 -13l18 -2
l11 -6l14 14l16 17l13 23l6 9q7 1 9 4t4 13l12 -4l3 8l-9 14q9 8 15.5 13t13 8t14.5 4t19 1l31 1l11 -3l3 -13l-9 -7l-16 -19l-35 -35l-30 -45l-35 -33l-7 -9l8 -11l11 7l11 -13l3 -15l5 -9l17 4l14 -6l14 -15l11 -7l8 -8l2 -11l12 -17l3 -12q-5 -6 -8 -10.5t0 -7.5l30 -33
l2 -10l7 -16l1 -10l-2 -21l5 -14v-26l3 -13l-8 -23l2 -24l-8 -21l-10 3l-6 -14l9 -17v-17l-15 -22l-8 -4l-1 -6l7 -10l-10 -8l-8 -15l-9 -12q-8 7 -13 7q-8 0 -8 -9q0 -4 1.5 -8t3.5 -12l-43 -42l-88 -46l-12 -3l-43 -16q-12 -5 -27 -6.5t-26 -1.5l-20 1l-12 -2l-15 12
l-28 -14l-8 3l-16 18l-10 -4l-29 -8l-11 -3l-19 6l-26 3l-11 5h-6zM106 363q4 -3 6 -11.5t2 -17.5v-6l-2 -34l6 -34v-8l14 -23l-10 -17l2 -8l23 -2l17 -22q-5 -7 -5 -10t3 -9h7q6 -8 10.5 -12.5t9.5 -6.5l26 -16l9 -6l22 21q12 14 18.5 21t11 10.5t8.5 5l12 4.5q3 11 6 16.5
t14 16.5l23 26l17 17q9 6 14 9.5t7 5.5t2 4.5v7.5l19 19l7 11l38 39l10 13l32 14l-5 13l6 13q23 1 23 9l2 15q2 8 21 24l8 8l8 -1q7 0 11 6l7 20l17 24l63 63l9 16l-14 3l-22 5l-43 24l-41 7l-39 7l-27 -2l-22 -1l-24 -6l-22 -4l-22 -11l-11 2l-56 -29l-23 -7l-23 -24
l-15 -4l-22 -23l-29 -26l-35 -47l-16 -13l-7 -15l-5 -20l-4 -5l-4 -10l-19 2l-16 -18zM773 197l-3 23l12 36l1 10l6 2l6 32l-10 26l1 51v11q8 6 11 10.5t3 10.5q0 21 -27 26v15.5t-2 10t-7 11.5t-14 20l-6 11l-1 8l-9 6l-30 37l-15 5l-11 -13l-38 -39l-17 -26l-77 -75
q-9 -14 -14 -21.5t-9.5 -11.5t-10.5 -6.5t-18 -6.5l4 -11l-13 -13l-12 3q-7 -3 -9.5 -6.5t-5.5 -12.5l6 -1l-2 -8l-8 -9l-61 -62l-11 -18l-10 -5l-8 1l-16 -14v-7q0 -12 -9 -13l-18 -6l-2 -20l-26 -26l-18 -23l-10 -12l14 -5l15 -16l63 -23l25 -13l12 2l92 -13l50 4l46 -2
l21 4l44 17l11 2l2 -6l11 4l10 10l1 11l46 36l27 47l14 13z" />
    <glyph glyph-name="Ugrave" unicode="&#xd9;" horiz-adv-x="801" 
d="M65 320q4 -1 7 -1.5t6 -0.5q7 0 7 6q0 7 -10 11v20l-10 3l12 60l5 11l5 9l11 34l8 12l4 11l12 12q-2 6 -2 9v7q0 10 4 19.5t18 29.5l-9 6l-11 -6q-2 6 -3 11.5t-1 7.5q0 8 8 14t19 6l12 -1l4 9l13 2l48 23l14 6q10 -13 10 -21q0 -5 -4 -8l-10 -8l-21 -31l-7 -5l-1 -15
l-13 -20l-18 -25l-11 -17l-12 -48l-12 -37l-2 -29l-14 -39l-1 -18l-8 -37l4 -24l-5 -18l17 -55l1 -11q-14 -2 -14 -19q0 -9 17 -12l5 -12l9 -23l23 -32l4 -11l10 -4l18 -15l46 -14l30 -8l18 -6q12 -15 19 -15q6 0 14 18l57 3l10 -9l11 5l35 13l13 10l37 17l25 21l12 2l33 21
l23 6l4 6l-9 6l11 7l16 13l30 48l15 12q4 5 4 20v6v29l1 36q8 6 10 10.5t1 15.5l-17 13l-5 109l6 10q-5 9 -5 14q0 8 5 21l-5 4l-1 12l-4 42q0 6 8 19l-22 23l6 16h9q16 16 25 19l11 4l10 6l13 -2q9 14 13 17t15 3l5 -13v-11l-1 -30l-10 -36l1 -18l-2 -14l6 -23v-1
q0 -8 -11 -27l-7 -13l-11 -3l7 -10q13 -17 15.5 -21.5t2.5 -10.5l-5 -29v-16l-6 -2l4 -5l-4 -16v-2l9 -59l-3 -12q-12 -5 -12 -13t13 -18l1 -42l-4 -12q-2 -8 -2 -7q0 -5 6 -17q5 -10 5 -20q0 -8 -7 -19q10 -10 12 -14l-1 -39l2 -49v-6q-12 -2 -20 -7t-31 -23l-4 -7l-9 1
l-19 -15q-5 11 -5 20q0 11 1.5 15.5t6.5 10.5h7q-1 8 -3.5 11t-10.5 5l1 49l4 3l-3 23q-5 3 -8 3q-1 0 -2 -0.5t-3 -0.5l-5 -5h-8q-6 0 -9 -3l-12 -8l-20 -9l-73 -50l-24 -9l-32 -17l-43 -15l-33 -10q-20 -9 -30 -9h-18l-30 -10l-27 -1l-17 -2l-15 2l-36 7l-22 10l-16 5
l-20 19l-8 9l-16 -2l-10 8l-5 10l-18 14q-3 5 -4 11t-1 20v8l-15 8l-6 17l-7 30l-5 11l14 25q-13 11 -18 19.5t-5 21.5q0 12 4 20l12 29l1 39zM306 879q12 7 17 7l25 -4l32 -1q17 -1 24.5 -4.5t12.5 -13.5q-7 -5 -11 -10l4 -10l5 -19l22 -34l5 -16l-4 -4q2 -7 4.5 -8.5
t9.5 -1.5l6 -7l-11 -17q-5 -1 -10 -1q-6 0 -18 5l-4 -2q-3 9 -3 10l-14 22q-3 6 -5.5 8.5t-10.5 7.5q-6 15 -14 22.5t-23 12.5l-7 12l-9 14l-12 13z" />
    <glyph glyph-name="Uacute" unicode="&#xda;" horiz-adv-x="801" 
d="M65 320q4 -1 7 -1.5t6 -0.5q7 0 7 6q0 7 -10 11v20l-10 3l12 60l5 11l5 9l11 34l8 12l4 11l12 12q-2 6 -2 9v7q0 10 4 19.5t18 29.5l-9 6l-11 -6q-2 6 -3 11.5t-1 7.5q0 8 8 14t19 6l12 -1l4 9l13 2l48 23l14 6q10 -13 10 -21q0 -5 -4 -8l-10 -8l-21 -31l-7 -5l-1 -15
l-13 -20l-18 -25l-11 -17l-12 -48l-12 -37l-2 -29l-14 -39l-1 -18l-8 -37l4 -24l-5 -18l17 -55l1 -11q-14 -2 -14 -19q0 -9 17 -12l5 -12l9 -23l23 -32l4 -11l10 -4l18 -15l46 -14l30 -8l18 -6q12 -15 19 -15q6 0 14 18l57 3l10 -9l11 5l35 13l13 10l37 17l25 21l12 2l33 21
l23 6l4 6l-9 6l11 7l16 13l30 48l15 12q4 5 4 20v6v29l1 36q8 6 10 10.5t1 15.5l-17 13l-5 109l6 10q-5 9 -5 14q0 8 5 21l-5 4l-1 12l-4 42q0 6 8 19l-22 23l6 16h9q16 16 25 19l11 4l10 6l13 -2q9 14 13 17t15 3l5 -13v-11l-1 -30l-10 -36l1 -18l-2 -14l6 -23v-1
q0 -8 -11 -27l-7 -13l-11 -3l7 -10q13 -17 15.5 -21.5t2.5 -10.5l-5 -29v-16l-6 -2l4 -5l-4 -16v-2l9 -59l-3 -12q-12 -5 -12 -13t13 -18l1 -42l-4 -12q-2 -8 -2 -7q0 -5 6 -17q5 -10 5 -20q0 -8 -7 -19q10 -10 12 -14l-1 -39l2 -49v-6q-12 -2 -20 -7t-31 -23l-4 -7l-9 1
l-19 -15q-5 11 -5 20q0 11 1.5 15.5t6.5 10.5h7q-1 8 -3.5 11t-10.5 5l1 49l4 3l-3 23q-5 3 -8 3q-1 0 -2 -0.5t-3 -0.5l-5 -5h-8q-6 0 -9 -3l-12 -8l-20 -9l-73 -50l-24 -9l-32 -17l-43 -15l-33 -10q-20 -9 -30 -9h-18l-30 -10l-27 -1l-17 -2l-15 2l-36 7l-22 10l-16 5
l-20 19l-8 9l-16 -2l-10 8l-5 10l-18 14q-3 5 -4 11t-1 20v8l-15 8l-6 17l-7 30l-5 11l14 25q-13 11 -18 19.5t-5 21.5q0 12 4 20l12 29l1 39zM439 732q5 16 8.5 27t8.5 18l19 32q6 9 8.5 13.5t3.5 7t1 3v2.5l-2 17l-8 5l10 19l23 1l53 8l2 1q7 0 15 -8l-32 -53l-30 -32
l2 -6l-6 -12l-20 -29l-19 -17l-6 -9h-3v2h-26z" />
    <glyph glyph-name="Ucircumflex" unicode="&#xdb;" horiz-adv-x="801" 
d="M65 320q4 -1 7 -1.5t6 -0.5q7 0 7 6q0 7 -10 11v20l-10 3l12 60l5 11l5 9l11 34l8 12l4 11l12 12q-2 6 -2 9v7q0 10 4 19.5t18 29.5l-9 6l-11 -6q-2 6 -3 11.5t-1 7.5q0 8 8 14t19 6l12 -1l4 9l13 2l48 23l14 6q10 -13 10 -21q0 -5 -4 -8l-10 -8l-21 -31l-7 -5l-1 -15
l-13 -20l-18 -25l-11 -17l-12 -48l-12 -37l-2 -29l-14 -39l-1 -18l-8 -37l4 -24l-5 -18l17 -55l1 -11q-14 -2 -14 -19q0 -9 17 -12l5 -12l9 -23l23 -32l4 -11l10 -4l18 -15l46 -14l30 -8l18 -6q12 -15 19 -15q6 0 14 18l57 3l10 -9l11 5l35 13l13 10l37 17l25 21l12 2l33 21
l23 6l4 6l-9 6l11 7l16 13l30 48l15 12q4 5 4 20v6v29l1 36q8 6 10 10.5t1 15.5l-17 13l-5 109l6 10q-5 9 -5 14q0 8 5 21l-5 4l-1 12l-4 42q0 6 8 19l-22 23l6 16h9q16 16 25 19l11 4l10 6l13 -2q9 14 13 17t15 3l5 -13v-11l-1 -30l-10 -36l1 -18l-2 -14l6 -23v-1
q0 -8 -11 -27l-7 -13l-11 -3l7 -10q13 -17 15.5 -21.5t2.5 -10.5l-5 -29v-16l-6 -2l4 -5l-4 -16v-2l9 -59l-3 -12q-12 -5 -12 -13t13 -18l1 -42l-4 -12q-2 -8 -2 -7q0 -5 6 -17q5 -10 5 -20q0 -8 -7 -19q10 -10 12 -14l-1 -39l2 -49v-6q-12 -2 -20 -7t-31 -23l-4 -7l-9 1
l-19 -15q-5 11 -5 20q0 11 1.5 15.5t6.5 10.5h7q-1 8 -3.5 11t-10.5 5l1 49l4 3l-3 23q-5 3 -8 3q-1 0 -2 -0.5t-3 -0.5l-5 -5h-8q-6 0 -9 -3l-12 -8l-20 -9l-73 -50l-24 -9l-32 -17l-43 -15l-33 -10q-20 -9 -30 -9h-18l-30 -10l-27 -1l-17 -2l-15 2l-36 7l-22 10l-16 5
l-20 19l-8 9l-16 -2l-10 8l-5 10l-18 14q-3 5 -4 11t-1 20v8l-15 8l-6 17l-7 30l-5 11l14 25q-13 11 -18 19.5t-5 21.5q0 12 4 20l12 29l1 39zM506 748q-11 1 -15.5 3.5t-17.5 16.5l-8 8q3 7 3 11t-4 11h-11l-8 12q-11 16 -15 20.5t-14 4.5l-22 -2v-7l-9 -8q-24 -23 -29 -34
l-7 -14l-19 -26l-15 -9l-15 -15q-7 -7 -21 -11t-22 -5q-2 0 -6 2.5t-7 5.5q12 18 18 21l34 19l13 19l32 30l6 13l50 53l52 33l13 13l7 5l12 14q1 1 4 1q5 0 8.5 -4t3.5 -9q0 -4 -3 -8l-13 -21q0 -10 11 -22l-4 -4l1 -9l25 -12l30 -30l7 -9q-3 -6 -3 -15v-4l32 -12l5 -12
q2 -9 2.5 -10.5t5.5 -4.5l35 6l6 -6q-34 -43 -64 -43l-19 5l-1 11q-9 4 -14 5.5t-11 1.5h-5z" />
    <glyph glyph-name="Udieresis" unicode="&#xdc;" horiz-adv-x="801" 
d="M65 320q4 -1 7 -1.5t6 -0.5q7 0 7 6q0 7 -10 11v20l-10 3l12 60l5 11l5 9l11 34l8 12l4 11l12 12q-2 6 -2 9v7q0 10 4 19.5t18 29.5l-9 6l-11 -6q-2 6 -3 11.5t-1 7.5q0 8 8 14t19 6l12 -1l4 9l13 2l48 23l14 6q10 -13 10 -21q0 -5 -4 -8l-10 -8l-21 -31l-7 -5l-1 -15
l-13 -20l-18 -25l-11 -17l-12 -48l-12 -37l-2 -29l-14 -39l-1 -18l-8 -37l4 -24l-5 -18l17 -55l1 -11q-14 -2 -14 -19q0 -9 17 -12l5 -12l9 -23l23 -32l4 -11l10 -4l18 -15l46 -14l30 -8l18 -6q12 -15 19 -15q6 0 14 18l57 3l10 -9l11 5l35 13l13 10l37 17l25 21l12 2l33 21
l23 6l4 6l-9 6l11 7l16 13l30 48l15 12q4 5 4 20v6v29l1 36q8 6 10 10.5t1 15.5l-17 13l-5 109l6 10q-5 9 -5 14q0 8 5 21l-5 4l-1 12l-4 42q0 6 8 19l-22 23l6 16h9q16 16 25 19l11 4l10 6l13 -2q9 14 13 17t15 3l5 -13v-11l-1 -30l-10 -36l1 -18l-2 -14l6 -23v-1
q0 -8 -11 -27l-7 -13l-11 -3l7 -10q13 -17 15.5 -21.5t2.5 -10.5l-5 -29v-16l-6 -2l4 -5l-4 -16v-2l9 -59l-3 -12q-12 -5 -12 -13t13 -18l1 -42l-4 -12q-2 -8 -2 -7q0 -5 6 -17q5 -10 5 -20q0 -8 -7 -19q10 -10 12 -14l-1 -39l2 -49v-6q-12 -2 -20 -7t-31 -23l-4 -7l-9 1
l-19 -15q-5 11 -5 20q0 11 1.5 15.5t6.5 10.5h7q-1 8 -3.5 11t-10.5 5l1 49l4 3l-3 23q-5 3 -8 3q-1 0 -2 -0.5t-3 -0.5l-5 -5h-8q-6 0 -9 -3l-12 -8l-20 -9l-73 -50l-24 -9l-32 -17l-43 -15l-33 -10q-20 -9 -30 -9h-18l-30 -10l-27 -1l-17 -2l-15 2l-36 7l-22 10l-16 5
l-20 19l-8 9l-16 -2l-10 8l-5 10l-18 14q-3 5 -4 11t-1 20v8l-15 8l-6 17l-7 30l-5 11l14 25q-13 11 -18 19.5t-5 21.5q0 12 4 20l12 29l1 39zM257 800l10 7l21 16l11 13l13 11l7 -6l11 -7l30 -14q9 -5 13 -10.5t8 -16.5l-6 -11l-6 -17l-26 -23l-9 -9l-12 6l-48 44l-19 5z
M497 801l59 45l11 -8l34 -20q10 -5 16.5 -12.5t6.5 -15.5q0 -6 -4.5 -12t-9.5 -11l-28 -22l-8 -9l-14 7l-13 15l-19 15l-11 15q-3 2 -7.5 3.5t-13.5 3.5z" />
    <glyph glyph-name="Yacute" unicode="&#xdd;" horiz-adv-x="626" 
d="M94 648l-7 -22l2 -8v-8l20 -23l2 -10l-1 -17l16 -13l-4 -15q-3 -8 -3 -13q0 -4 6 -10l20 3q21 0 30 -14l11 -22l10 -16l3 -10l-7 -5q7 -11 10.5 -14t8.5 -3q2 0 4 0.5t4 0.5q17 -24 29.5 -37t32.5 -28l-7 -4q4 -10 7 -13.5t11 -8.5l5 5l28 -28q3 -24 19 -24q5 0 13 5
l12 12l10 7l30 42l12 13l26 47l25 34l8 25l11 21l7 29l20 30l3 10l25 -3q-1 11 -4 14t-14 5l4 10q7 20 16 26l20 13q32 20 45 22l7 -2q-1 -25 -11 -37l-21 -29l-21 -40l-16 -11l-17 -44l-7 -7l-11 -16l-12 -8q-3 -3 -4.5 -5t-2.5 -7v-13l-13 -20l-13 -24l-8 -6l-20 -39
q-4 -9 -27 -25l-10 -7l7 -15l-7 -13l-18 -20l-10 -18l-8 -7l-1 -19q0 -14 -2.5 -20t-13.5 -15q2 -10 5 -13.5t11 -8.5l-3 -49l-6 2l-7 -5l3 -26l8 -1l2 -45l-10 -3v-8q14 -11 14 -19q0 -2 -3 -9l-10 -2l-10 2l-11 -3q-14 -5 -26 -8.5t-20 -3.5q-10 0 -19 12l2 24l6 24l3 19
l-2 45q0 3 2 6t5 8l3 8l-3 3l-12 1l2 12l8 11l2 11l-1 19l1 15h8q0 11 -2 15t-8 9l6 4l-5 11l-24 19l-22 28q-4 2 -7.5 3.5t-11.5 2.5q0 21 -6 27l-35 32l-1 28q-2 15 -14 15q-2 0 -12 -2q-1 13 -5 18t-18 13l-9 -2l-11 14l-42 44l-16 22l-9 10q14 2 14 10q0 5 -4 8.5
t-10 3.5q-2 0 -12 -2q-31 39 -31 62q0 8 4.5 18t9.5 12l30 14l24 13l6 1l7 -2l8 1zM294 732q5 16 8.5 27t8.5 18l19 32q6 9 8.5 13.5t3.5 7t1 3v2.5l-2 17l-8 5l10 19l23 1l53 8l2 1q7 0 15 -8l-32 -53l-30 -32l2 -6l-6 -12l-20 -29l-19 -17l-6 -9h-3v2h-26z" />
    <glyph glyph-name="Thorn" unicode="&#xde;" horiz-adv-x="648" 
d="M108 414l2 1l-3 16q-1 2 0 6.5t1 5.5l-8 17h-1q-1 0 1.5 6t2.5 9v12l-2 28q1 1 1 2t-1 1l-8 16q-1 2 -1 7t0.5 10.5t5.5 16.5l2 8l-4 1l-5 -2l-3 28q-4 3 -7.5 6t-3.5 7q0 6 2 14l20 13l26 3l24 8l5 10l12 3q8 -8 10 -13t2 -11v-5l-2 -22l-5 -3q0 -1 -0.5 -2t-0.5 -2
q0 -5 10 -8l1 -15v-27l-4 -9l34 -8l26 -1l21 4q6 2 12.5 2h13.5h18l54 -4l26 2l3 -1l8 -9h44l25 -10l12 6l31 -6l9 -9q8 -9 15 -11l37 -2l51 -29q-3 -6 -3 -7q0 -6 11 -14l1 -13l7 -20l-8 -27q-3 -11 -6 -16t-7.5 -8t-12 -5t-20.5 -7l11 -9q-2 -8 -5 -12.5t-11 -12.5
q-12 -1 -17.5 -3.5t-12.5 -10.5l8 -4l-19 -15l-25 -11l-11 -8l-29 -7q-4 0 -10 -4.5t-16 -9.5l-17 -10l-7 2l-22 -8l-41 -10l-26 -9l-24 2l-14 -7l-13 -4l-12 2l-8 -8l-31 -4l-13 2q-14 0 -29 -6l-11 -10l-2 -9l4 -23l-4 -11l6 -10q-4 -4 -6 -12t-2 -13l8 -25l4 -23l2 -24
q0 -13 -10 -16l-16 -5l-15 -14l-12 -1l-23 -12q-4 -2 -5 -2q-11 0 -11 13q0 5 1 7l10 18l-3 29l10 39l-7 24l6 11l-2 18l8 30v15h-7l-1 10l2 9l6 14l-1 8l1 12l-7 10l-3 55l4 13l1 22l4 15l-7 18l2 34zM204 509q-13 -3 -19 -9l3 -14q0 -1 -0.5 -2t-0.5 -3l-9 -17l3 -22
l-6 -12l7 -25l-6 -18l4 -42l-4 -7l2 -10l-5 -18l-2 -8l5 -9l-2 -15q-1 -5 -4.5 -13t-3.5 -13q0 -7 5 -9l24 4l15 -3l12 2l28 -11l21 9l29 4l25 -1l9 5l33 3l73 23q21 6 25 13l10 14l19 13l12 20l17 2l11 22l14 11l-7 28l9 24l-11 22l-25 25q-9 11 -11 12.5t-7 3.5l-6 -5
q-29 12 -59 19.5t-48 7.5h-47l-41 7l-28 -10z" />
    <glyph glyph-name="germandbls" unicode="&#xdf;" horiz-adv-x="538" 
d="M259 -3l-13 1l-19 7l-10 -2q-2 3 -4.5 3h-7.5l-13 2l-6 18l11 9l12 17l18 2l5 -2l13 -10l15 -3l25 -10l7 -1l9 1l20 4l23 3l24 17l14 -1l9 1q1 16 3 19.5t12 5.5l2 11l14 31l4 24l5 11l-5 9l3 14l-2 13v10l1 4h6l4 3l-6 8l-10 -2l-14 26l3 18q-5 5 -8 6t-10 2l-4 17
l-13 11l-28 21l-18 24l-10 -3l-14 4l-15 5q-3 5 -6.5 8t-10 4.5t-19.5 2t-35 1.5l-13 3l-5 16l2 11l10 5l36 21l28 9l10 9l10 22l12 8l4 10l-2 12l12 40l-4 22l-1 13l-8 8l-8 16q-2 5 -11.5 12.5t-20.5 13.5q-13 7 -24 7l-14 -1l-11 2l-30 -17l-11 -7l-7 7l-7 -7l-7 -14
l-2 -27l-8 -32l-3 -21l1 -11l6 -26l-5 -24l-16 -7h-5v-7l6 -15l9 1l12 -18l-5 -23l-4 -13l1 -51l-4 -15l11 -61l-9 -16q-1 -9 -3.5 -11.5t-12.5 -3.5l5 -10l14 -10l5 -7l-6 -68l1 -68l-14 -8l-54 -40l-20 5l1 6l-1 4l-2 10l8 18l2 19l6 40l-1 8l-2 12l5 5l10 -2l2 18l-13 -1
l-3 11l1 17l5 37l3 28l-4 12l1 42l2 16l5 18l-5 35l9 11q-8 7 -9.5 11.5t-2.5 21.5v18l2 13l13 18l3 12l-11 1l-7 62l-24 11l5 17l17 11l23 22l11 8l21 24l24 4l7 11l15 11l46 15l10 4l9 -2l18 -2l1 3l25 -3l-2 -6l4 1l33 -11l19 -2l7 -8l10 -4l12 -20q-7 -7 -7 -11l4 -8
q11 -2 15.5 -3t7.5 -4l4 -5l5 -12l-1 -19l1 -33q-3 -17 -23 -18l-2 6l-7 -13h10l8 -6l-4 -13q-9 -23 -16 -27l-19 -13l-17 -12l-11 -3l-15 -11l-10 -3l5 -10l22 -4l30 -12l36 -10l17 -8l14 -5l4 -12l12 -6l21 -23l13 -11l-4 -17l6 1l4 -4h7q13 -14 23 -39t8 -44l-3 -34
q-28 -13 -28 -19l2 -7q13 -4 13 -15q0 -17 -5.5 -31t-14.5 -22l-25 -21l-6 -9q-9 4 -9 10l1 9l-7 1q-4 0 -7 -4t-1 -9l3 -12l-15 -10l-6 -10l-13 -2l-33 -9l-6 -1l-12 3l-10 5l-16 1q-2 -8 -4 -11.5t-10 -1.5z" />
    <glyph glyph-name="agrave" unicode="&#xe0;" horiz-adv-x="536" 
d="M148 203q10 22 37 21l3 3h10q3 4 5.5 6.5t6.5 4t9.5 3t15.5 3.5l61 11l18 -2l23 5l41 4q9 2 15 7.5t6 12.5q0 2 -1 3l-5 22l4 32q-3 18 -25 21l-7 11q-12 19 -18.5 24t-24.5 8l-28 6l-27 1l-13 -2q-5 2 -7 4.5t-4 9.5l-13 -6l-15 -14l-48 -24q-15 -8 -20 -16l-7 -10
q-5 -8 -13 -8l-10 2l-14 7l-15 3q-9 3 -15.5 8.5t-6.5 10.5q0 3 1 3l8 6l16 12l17 3l26 13l32 11l9 2l21 11l17 -3l59 13l25 -1h19l20 -7l58 -11l9 -5v-7l-7 -4q3 -17 12 -17q1 0 1.5 0.5t1.5 0.5l14 6h2q4 0 6 -5l10 -18l10 -8v-11l-2 -25q0 -16 16 -28l6 -72l-13 -18
l15 -18l1 -6l-3 -46l4 -35v-8v-11l-7 -2q0 -8 0.5 -12t1.5 -8t3.5 -8.5t6.5 -12.5l7 -16l-5 -9l-8 -12l-14 -5l-20 -11l-19 -6q-19 -7 -21 -7q-4 0 -7 3.5t-3 6.5q0 5 5 22q2 5 4 17l-10 -6l-44 -15q-14 -6 -26 -6h-1h-19l-23 -11l-16 -2l-45 -9l-19 3l-13 -5l-9 -2l-15 1
l-32 7l-22 2q-22 3 -39 15.5t-24 31.5l-13 5l-3 12l-1 9l-7 23l18 36l6 16q2 5 4 7t14 12l38 31l16 6l27 11q0 -1 1 -1h4zM100 114l11 -44l-11 -28l8 -10l13 16q11 -10 19 -13.5t29 -8.5l10 -14l34 -3l9 9l10 -5l7 4l5 3q5 -2 9 -3t5 -1q15 0 38 14q2 1 4.5 2.5t6.5 3.5
q24 0 37 4t21 14l10 13l24 20l1 6l-1 6q8 3 9.5 6t2.5 13q-7 7 -9 11l2 20l-4 45l6 13l-16 9l-8 -2l-45 3l-21 -1l-16 11l-10 -6l-27 -1l-19 -7l-11 6l-14 -8l-73 -35l-16 -12l-13 -19l-17 -10q-4 -4 -4 -9l1 -2l4 -6zM170 649q12 7 17 7l25 -4l32 -1q17 -1 24.5 -4.5
t12.5 -13.5q-7 -5 -11 -10l4 -10l5 -19l22 -34l5 -16l-4 -4q2 -7 4.5 -8.5t9.5 -1.5l6 -7l-11 -17q-5 -1 -10 -1q-6 0 -18 5l-4 -2q-3 9 -3 10l-14 22q-3 6 -5.5 8.5t-10.5 7.5q-6 15 -14 22.5t-23 12.5l-7 12l-9 14l-12 13z" />
    <glyph glyph-name="aacute" unicode="&#xe1;" horiz-adv-x="536" 
d="M148 203q10 22 37 21l3 3h10q3 4 5.5 6.5t6.5 4t9.5 3t15.5 3.5l61 11l18 -2l23 5l41 4q9 2 15 7.5t6 12.5q0 2 -1 3l-5 22l4 32q-3 18 -25 21l-7 11q-12 19 -18.5 24t-24.5 8l-28 6l-27 1l-13 -2q-5 2 -7 4.5t-4 9.5l-13 -6l-15 -14l-48 -24q-15 -8 -20 -16l-7 -10
q-5 -8 -13 -8l-10 2l-14 7l-15 3q-9 3 -15.5 8.5t-6.5 10.5q0 3 1 3l8 6l16 12l17 3l26 13l32 11l9 2l21 11l17 -3l59 13l25 -1h19l20 -7l58 -11l9 -5v-7l-7 -4q3 -17 12 -17q1 0 1.5 0.5t1.5 0.5l14 6h2q4 0 6 -5l10 -18l10 -8v-11l-2 -25q0 -16 16 -28l6 -72l-13 -18
l15 -18l1 -6l-3 -46l4 -35v-8v-11l-7 -2q0 -8 0.5 -12t1.5 -8t3.5 -8.5t6.5 -12.5l7 -16l-5 -9l-8 -12l-14 -5l-20 -11l-19 -6q-19 -7 -21 -7q-4 0 -7 3.5t-3 6.5q0 5 5 22q2 5 4 17l-10 -6l-44 -15q-14 -6 -26 -6h-1h-19l-23 -11l-16 -2l-45 -9l-19 3l-13 -5l-9 -2l-15 1
l-32 7l-22 2q-22 3 -39 15.5t-24 31.5l-13 5l-3 12l-1 9l-7 23l18 36l6 16q2 5 4 7t14 12l38 31l16 6l27 11q0 -1 1 -1h4zM100 114l11 -44l-11 -28l8 -10l13 16q11 -10 19 -13.5t29 -8.5l10 -14l34 -3l9 9l10 -5l7 4l5 3q5 -2 9 -3t5 -1q15 0 38 14q2 1 4.5 2.5t6.5 3.5
q24 0 37 4t21 14l10 13l24 20l1 6l-1 6q8 3 9.5 6t2.5 13q-7 7 -9 11l2 20l-4 45l6 13l-16 9l-8 -2l-45 3l-21 -1l-16 11l-10 -6l-27 -1l-19 -7l-11 6l-14 -8l-73 -35l-16 -12l-13 -19l-17 -10q-4 -4 -4 -9l1 -2l4 -6zM247 508q5 16 8.5 27t8.5 18l19 32q6 9 8.5 13.5t3.5 7
t1 3v2.5l-2 17l-8 5l10 19l23 1l53 8l2 1q7 0 15 -8l-5 -7l-27 -46l-18 -20l-12 -12l2 -6l-6 -12l-20 -29l-19 -17l-6 -9h-3v2h-26z" />
    <glyph glyph-name="acircumflex" unicode="&#xe2;" horiz-adv-x="536" 
d="M148 203q10 22 37 21l3 3h10q3 4 5.5 6.5t6.5 4t9.5 3t15.5 3.5l61 11l18 -2l23 5l41 4q9 2 15 7.5t6 12.5q0 2 -1 3l-5 22l4 32q-3 18 -25 21l-7 11q-12 19 -18.5 24t-24.5 8l-28 6l-27 1l-13 -2q-5 2 -7 4.5t-4 9.5l-13 -6l-15 -14l-48 -24q-15 -8 -20 -16l-7 -10
q-5 -8 -13 -8l-10 2l-14 7l-15 3q-9 3 -15.5 8.5t-6.5 10.5q0 3 1 3l8 6l16 12l17 3l26 13l32 11l9 2l21 11l17 -3l59 13l25 -1h19l20 -7l58 -11l9 -5v-7l-7 -4q3 -17 12 -17q1 0 1.5 0.5t1.5 0.5l14 6h2q4 0 6 -5l10 -18l10 -8v-11l-2 -25q0 -16 16 -28l6 -72l-13 -18
l15 -18l1 -6l-3 -46l4 -35v-8v-11l-7 -2q0 -8 0.5 -12t1.5 -8t3.5 -8.5t6.5 -12.5l7 -16l-5 -9l-8 -12l-14 -5l-20 -11l-19 -6q-19 -7 -21 -7q-4 0 -7 3.5t-3 6.5q0 5 5 22q2 5 4 17l-10 -6l-44 -15q-14 -6 -26 -6h-1h-19l-23 -11l-16 -2l-45 -9l-19 3l-13 -5l-9 -2l-15 1
l-32 7l-22 2q-22 3 -39 15.5t-24 31.5l-13 5l-3 12l-1 9l-7 23l18 36l6 16q2 5 4 7t14 12l38 31l16 6l27 11q0 -1 1 -1h4zM100 114l11 -44l-11 -28l8 -10l13 16q11 -10 19 -13.5t29 -8.5l10 -14l34 -3l9 9l10 -5l7 4l5 3q5 -2 9 -3t5 -1q15 0 38 14q2 1 4.5 2.5t6.5 3.5
q24 0 37 4t21 14l10 13l24 20l1 6l-1 6q8 3 9.5 6t2.5 13q-7 7 -9 11l2 20l-4 45l6 13l-16 9l-8 -2l-45 3l-21 -1l-16 11l-10 -6l-27 -1l-19 -7l-11 6l-14 -8l-73 -35l-16 -12l-13 -19l-17 -10q-4 -4 -4 -9l1 -2l4 -6zM335 525q-11 1 -15.5 3.5t-17.5 16.5l-8 8q3 7 3 11
t-4 11h-11l-8 12q-10 16 -15 20.5t-14 4.5l-22 -2v-7l-9 -8q-24 -23 -29 -34l-7 -14l-11 -14l-8 -12l-15 -9l-15 -15q-8 -6 -21 -11t-22 -5q-2 0 -6 2.5t-7 5.5q12 18 18 21l34 19l13 19l32 30l6 13l30 31l20 22l52 33l13 13l7 5l12 14q8 3 13.5 -4.5t-0.5 -15.5l-13 -21
q0 -10 11 -22l-4 -4l1 -9l13 -7l12 -5l30 -30l7 -9q-2 -4 -3 -8.5t0 -10.5l32 -12l5 -12q2 -9 2.5 -10.5t5.5 -4.5l35 6l6 -6q-34 -43 -64 -43l-19 5l-1 11q-11 5 -16 6.5t-14 0.5z" />
    <glyph glyph-name="atilde" unicode="&#xe3;" horiz-adv-x="536" 
d="M148 203q10 22 37 21l3 3h10q3 4 5.5 6.5t6.5 4t9.5 3t15.5 3.5l61 11l18 -2l23 5l41 4q9 2 15 7.5t6 12.5q0 2 -1 3l-5 22l4 32q-3 18 -25 21l-7 11q-12 19 -18.5 24t-24.5 8l-28 6l-27 1l-13 -2q-5 2 -7 4.5t-4 9.5l-13 -6l-15 -14l-48 -24q-15 -8 -20 -16l-7 -10
q-5 -8 -13 -8l-10 2l-14 7l-15 3q-9 3 -15.5 8.5t-6.5 10.5q0 3 1 3l8 6l16 12l17 3l26 13l32 11l9 2l21 11l17 -3l59 13l25 -1h19l20 -7l58 -11l9 -5v-7l-7 -4q3 -17 12 -17q1 0 1.5 0.5t1.5 0.5l14 6h2q4 0 6 -5l10 -18l10 -8v-11l-2 -25q0 -16 16 -28l6 -72l-13 -18
l15 -18l1 -6l-3 -46l4 -35v-8v-11l-7 -2q0 -8 0.5 -12t1.5 -8t3.5 -8.5t6.5 -12.5l7 -16l-5 -9l-8 -12l-14 -5l-20 -11l-19 -6q-19 -7 -21 -7q-4 0 -7 3.5t-3 6.5q0 5 5 22q2 5 4 17l-10 -6l-44 -15q-14 -6 -26 -6h-1h-19l-23 -11l-16 -2l-45 -9l-19 3l-13 -5l-9 -2l-15 1
l-32 7l-22 2q-22 3 -39 15.5t-24 31.5l-13 5l-3 12l-1 9l-7 23l18 36l6 16q2 5 4 7t14 12l38 31l16 6l27 11q0 -1 1 -1h4zM100 114l11 -44l-11 -28l8 -10l13 16q11 -10 19 -13.5t29 -8.5l10 -14l34 -3l9 9l10 -5l7 4l5 3q5 -2 9 -3t5 -1q15 0 38 14q2 1 4.5 2.5t6.5 3.5
q24 0 37 4t21 14l10 13l24 20l1 6l-1 6q8 3 9.5 6t2.5 13q-7 7 -9 11l2 20l-4 45l6 13l-16 9l-8 -2l-45 3l-21 -1l-16 11l-10 -6l-27 -1l-19 -7l-11 6l-14 -8l-73 -35l-16 -12l-13 -19l-17 -10q-4 -4 -4 -9l1 -2l4 -6zM186 605l50 24q1 1 5 1q11 0 25 -6l15 -5
q4 -5 5.5 -7.5t2.5 -9.5l14 -2l28 -21l13 -6l6 7l4 -1l11 -7q6 0 12 2t20 9l10 6l9 19q4 6 12 7l17 3l13 8l12 -19l-19 -15l-22 -24q-5 -5 -10 -8t-14 -5l-5 -10l-10 -3l-27 -17l-17 -6l-15 -13l-17 5q-11 8 -18 11t-24 8q-4 10 -8 13t-15 5l-5 -7q-5 8 -10 11.5t-16 7.5
l-14 5l-17 -6l-22 -7l-9 -9l-18 6h-4l-1 -6l-6 4l-6 -4l-1 -7l4 -2l-1 -9q-15 -7 -22 -9t-13 -2q-14 0 -14 10q0 9 15 18q29 17 41.5 27t23.5 22z" />
    <glyph glyph-name="adieresis" unicode="&#xe4;" horiz-adv-x="536" 
d="M148 203q10 22 37 21l3 3h10q3 4 5.5 6.5t6.5 4t9.5 3t15.5 3.5l61 11l18 -2l23 5l41 4q9 2 15 7.5t6 12.5q0 2 -1 3l-5 22l4 32q-3 18 -25 21l-7 11q-12 19 -18.5 24t-24.5 8l-28 6l-27 1l-13 -2q-5 2 -7 4.5t-4 9.5l-13 -6l-15 -14l-48 -24q-15 -8 -20 -16l-7 -10
q-5 -8 -13 -8l-10 2l-14 7l-15 3q-9 3 -15.5 8.5t-6.5 10.5q0 3 1 3l8 6l16 12l17 3l26 13l32 11l9 2l21 11l17 -3l59 13l25 -1h19l20 -7l58 -11l9 -5v-7l-7 -4q3 -17 12 -17q1 0 1.5 0.5t1.5 0.5l14 6h2q4 0 6 -5l10 -18l10 -8v-11l-2 -25q0 -16 16 -28l6 -72l-13 -18
l15 -18l1 -6l-3 -46l4 -35v-8v-11l-7 -2q0 -8 0.5 -12t1.5 -8t3.5 -8.5t6.5 -12.5l7 -16l-5 -9l-8 -12l-14 -5l-20 -11l-19 -6q-19 -7 -21 -7q-4 0 -7 3.5t-3 6.5q0 5 5 22q2 5 4 17l-10 -6l-44 -15q-14 -6 -26 -6h-1h-19l-23 -11l-16 -2l-45 -9l-19 3l-13 -5l-9 -2l-15 1
l-32 7l-22 2q-22 3 -39 15.5t-24 31.5l-13 5l-3 12l-1 9l-7 23l18 36l6 16q2 5 4 7t14 12l38 31l16 6l27 11q0 -1 1 -1h4zM100 114l11 -44l-11 -28l8 -10l13 16q11 -10 19 -13.5t29 -8.5l10 -14l34 -3l9 9l10 -5l7 4l5 3q5 -2 9 -3t5 -1q15 0 38 14q2 1 4.5 2.5t6.5 3.5
q24 0 37 4t21 14l10 13l24 20l1 6l-1 6q8 3 9.5 6t2.5 13q-7 7 -9 11l2 20l-4 45l6 13l-16 9l-8 -2l-45 3l-21 -1l-16 11l-10 -6l-27 -1l-19 -7l-11 6l-14 -8l-73 -35l-16 -12l-13 -19l-17 -10q-4 -4 -4 -9l1 -2l4 -6zM76 578l10 7l21 16l11 13l13 11l7 -6l11 -7l30 -14
q9 -5 13 -10.5t8 -16.5l-6 -11l-6 -17l-26 -23l-9 -9l-12 6l-48 44l-19 5zM316 579l59 45l11 -8l34 -20q10 -5 16.5 -12.5t6.5 -15.5q0 -6 -4.5 -12t-9.5 -11l-28 -22l-8 -9l-14 7l-13 15l-19 15l-11 15q-3 2 -7.5 3.5t-13.5 3.5z" />
    <glyph glyph-name="aring" unicode="&#xe5;" horiz-adv-x="536" 
d="M148 203q10 22 37 21l3 3h10q3 4 5.5 6.5t6.5 4t9.5 3t15.5 3.5l61 11l18 -2l23 5l41 4q9 2 15 7.5t6 12.5q0 2 -1 3l-5 22l4 32q-3 18 -25 21l-7 11q-12 19 -18.5 24t-24.5 8l-28 6l-27 1l-13 -2q-5 2 -7 4.5t-4 9.5l-13 -6l-15 -14l-48 -24q-15 -8 -20 -16l-7 -10
q-5 -8 -13 -8l-10 2l-14 7l-15 3q-9 3 -15.5 8.5t-6.5 10.5q0 3 1 3l8 6l16 12l17 3l26 13l32 11l9 2l21 11l17 -3l59 13l25 -1h19l20 -7l58 -11l9 -5v-7l-7 -4q3 -17 12 -17q1 0 1.5 0.5t1.5 0.5l14 6h2q4 0 6 -5l10 -18l10 -8v-11l-2 -25q0 -16 16 -28l6 -72l-13 -18
l15 -18l1 -6l-3 -46l4 -35v-8v-11l-7 -2q0 -8 0.5 -12t1.5 -8t3.5 -8.5t6.5 -12.5l7 -16l-5 -9l-8 -12l-14 -5l-20 -11l-19 -6q-19 -7 -21 -7q-4 0 -7 3.5t-3 6.5q0 5 5 22q2 5 4 17l-10 -6l-44 -15q-14 -6 -26 -6h-1h-19l-23 -11l-16 -2l-45 -9l-19 3l-13 -5l-9 -2l-15 1
l-32 7l-22 2q-22 3 -39 15.5t-24 31.5l-13 5l-3 12l-1 9l-7 23l18 36l6 16q2 5 4 7t14 12l38 31l16 6l27 11q0 -1 1 -1h4zM100 114l11 -44l-11 -28l8 -10l13 16q11 -10 19 -13.5t29 -8.5l10 -14l34 -3l9 9l10 -5l7 4l5 3q5 -2 9 -3t5 -1q15 0 38 14q2 1 4.5 2.5t6.5 3.5
q24 0 37 4t21 14l10 13l24 20l1 6l-1 6q8 3 9.5 6t2.5 13q-7 7 -9 11l2 20l-4 45l6 13l-16 9l-8 -2l-45 3l-21 -1l-16 11l-10 -6l-27 -1l-19 -7l-11 6l-14 -8l-73 -35l-16 -12l-13 -19l-17 -10q-4 -4 -4 -9l1 -2l4 -6zM187 559l11 17l-1 5q0 10 16 26q19 18 36 22l24 5l11 3
l9 -3h16l19 -8q13 -3 17 -13q5 -11 8.5 -25t3.5 -24q0 -13 -9 -24.5t-24 -20t-35.5 -13.5t-43.5 -5l-4 5q-4 -2 -9 -2q-4 0 -6 2l-7 5l-17 12l-6 19l-9 7v10zM309 543l2 21q0 8 -4 14.5t-12 16.5l-9 9q-5 0 -7 1t-5 5q-20 -6 -28.5 -12.5t-8.5 -16.5q0 -6 1 -12.5t3 -8.5
l7 -9l12 -14l11 -3l9 -6z" />
    </font>
</defs>
</svg>
